<?xml version="1.0" standalone="no"?>
<!DOCTYPE svg PUBLIC "-//W3C//DTD SVG 1.1//EN" "http://www.w3.org/Graphics/SVG/1.1/DTD/svg11.dtd" >
<svg xmlns="http://www.w3.org/2000/svg" xmlns:xlink="http://www.w3.org/1999/xlink" version="1.1">
<metadata>
Created by FontForge 20170731 at Mon Aug 21 21:34:55 2023
 By Aleksey,,,
Copyright (c) 2012 by Yellow Design Studio. All rights reserved.
</metadata>
<defs>
<font id="font__thirstyscript--900" horiz-adv-x="1218" >
  <font-face 
    font-family="font__thirstyscript"
    font-weight="700"
    font-stretch="normal"
    units-per-em="2048"
    panose-1="3 0 9 0 0 0 7 7 0 6"
    ascent="1638"
    descent="-410"
    x-height="1063"
    cap-height="1724"
    bbox="-672.06 -776.963 3623 2288"
    underline-thickness="102"
    underline-position="-307"
    unicode-range="U+000D-FB02"
  />
<missing-glyph horiz-adv-x="1024" 
 />
    <glyph glyph-name="B_r" unicode="Br" horiz-adv-x="2832" 
d="M303 354q-55 0 -87 -26.5t-32 -65.5q0 -40 32.5 -62t76.5 -22q93 0 184 105q-99 71 -174 71zM1143 170q62 0 112 23.5t79.5 61.5t45 83t15.5 92q0 17 -2 34.5t-10 47t-22 56t-40 58t-60.5 57.5t-88 49.5t-119.5 37.5q-84 -206 -113 -270q-44 -104 -100 -205
q168 -125 303 -125zM303 -76q-90 0 -161.5 29t-114 76t-64.5 102.5t-22 112.5q0 55 19.5 108.5t59.5 102.5t112.5 79.5t166.5 30.5q76 0 143 -23t154 -77q35 67 68 149l198 494q49 120 155.5 208.5t248.5 88.5l59 -176q-4 -1 -11 -4.5t-27.5 -17.5t-40 -33.5t-44 -55.5
t-43.5 -80l-24 -61q52 -14 106.5 -15t106 19t92 51t65.5 81.5t25 109.5q0 115 -90 192.5t-260 77.5q-120 0 -222 -42.5t-165.5 -109t-98.5 -142t-35 -146.5q0 -42 12 -88.5t24 -72.5l12 -26l-218 -161q-4 6 -10 16.5t-22.5 46t-29 72.5t-22.5 93t-10 111q0 108 35 211
t104 192t163.5 156t221.5 105.5t269 38.5q144 0 264 -40.5t200.5 -110.5t124.5 -165t44 -204q0 -68 -17 -127t-44.5 -99t-61 -72.5t-67 -51.5t-61 -32t-44.5 -17l-17 -5q8 -5 21 -16t45.5 -48.5t58 -80.5t46 -113.5t20.5 -146.5q0 -75 -18.5 -149.5t-58 -144t-95.5 -122.5
t-137 -85t-177 -32q-127 0 -248 55.5t-266 165.5q-172 -182 -397 -182zM1759 0q-32 3 -66 28t-46 54q78 75 208.5 292t268.5 523q-32 34 -48 62t-16 63q0 74 62.5 147t130.5 95l133 -74l-66 -164q20 -18 66.5 -48.5t89 -60.5t85.5 -66.5t69 -80t26 -86.5q0 -39 -24 -102
l-58 -146q-27 -67 -40.5 -117.5t-14.5 -77t6 -43t15 -20.5t18 -4q42 0 118.5 96.5t194.5 298.5q33 -3 68 -28t47 -54q-54 -93 -96.5 -159t-99 -138t-108 -116t-115 -72.5t-128.5 -28.5q-51 0 -95 15t-80 51t-53 89.5t-6.5 138t52.5 188.5l65 166q19 49 19 71q0 15 -6 28.5
t-24 32.5t-28.5 28t-41.5 36q-132 -288 -267 -517t-215 -300z" />
    <glyph glyph-name="D_r" unicode="Dr" horiz-adv-x="2969" 
d="M289 565q84 0 167.5 -30.5t186.5 -100.5q35 59 70 144l196 485q48 120 156 208.5t250 88.5l59 -174q-4 -2 -11.5 -6t-29.5 -20t-41.5 -35.5t-43 -55t-40.5 -76.5q-202 -497 -202 -499q-45 -119 -123 -240q141 -104 264 -104q91 0 176.5 49t150.5 132.5t114 188t74.5 220
t25.5 225.5q0 106 -26 194t-79.5 156.5t-143 106.5t-208.5 38q-103 0 -193 -29t-152 -77t-107 -109t-66 -124.5t-21 -123.5q0 -44 12 -91t24 -72l11 -25l-217 -162q-4 6 -10 16t-22.5 45t-29 72.5t-22.5 94.5t-10 114q0 110 33.5 215t102.5 197t165.5 161.5t231 109.5
t290.5 40q185 0 330.5 -55.5t239 -155.5t142 -237t48.5 -303q0 -117 -24 -240.5t-70 -244t-119 -227t-164.5 -188t-213 -129t-257.5 -47.5q-71 0 -130 12.5t-112.5 40.5t-95 57.5t-98.5 78.5q-173 -150 -405 -150q-104 0 -182.5 30.5t-120 79.5t-61 101.5t-19.5 106.5
q0 43 12 87t39 87t66.5 75.5t99.5 53t133 20.5zM303 178q106 0 201 82q-122 94 -203 94q-56 0 -87.5 -27.5t-31.5 -66.5q0 -41 33 -61.5t88 -20.5zM1896 0q-32 3 -66 28t-46 54q78 75 208.5 292t268.5 523q-63 66 -63 125q0 74 62 147t130 95l133 -74l-65 -164
q21 -19 86 -62.5t115 -79.5t92 -91.5t42 -108.5q0 -39 -24 -102l-57 -146q-27 -67 -40.5 -117.5t-15 -77t5.5 -43t15 -20.5t18 -4q82 0 314 395q32 -3 67 -28t47 -54q-54 -93 -96.5 -159t-99 -138t-108 -116t-115 -72.5t-128.5 -28.5q-51 0 -95 15t-80 51t-53 89.5t-6.5 138
t52.5 188.5l66 166q18 46 18 71q0 15 -6 28.5t-24 32.5t-28.5 28t-41.5 36q-132 -288 -267 -517t-215 -300z" />
    <glyph glyph-name="E_r" unicode="Er" horiz-adv-x="2369" 
d="M1178 1018q-166 0 -291 98q1 -49 13 -94t27 -74.5t33 -54t29 -35t17 -14.5l-156 -232q-4 3 -11.5 9t-32 20.5t-51 25.5t-67.5 20t-82 9q-132 0 -212.5 -84.5t-80.5 -222.5q0 -137 81 -230t218 -93q69 0 129 26.5t99.5 72t62 102t21 120.5t-26.5 123l272 78
q57 -171 30.5 -318.5t-109 -256.5t-211.5 -171.5t-277 -62.5q-129 0 -242 47.5t-191.5 128.5t-123.5 192t-45 234q0 134 53.5 252.5t140 197.5t198 120t224.5 30q-20 55 -20 143q0 165 80 301q-60 170 -51 373l209 -29q-3 -85 12 -159q150 102 332 102q100 0 178 -30
t123 -80.5t67.5 -108.5t22.5 -121q0 -145 -107 -249.5t-284 -104.5zM1157 1434q-114 0 -194 -86q87 -93 196 -93q55 0 94 23.5t39 64.5q0 40 -38 65.5t-97 25.5zM1296 0q-32 3 -66 28t-46 54q78 75 208.5 292t268.5 523q-32 34 -48 62t-16 63q0 74 62.5 147t130.5 95
l133 -74l-65 -164q21 -19 86 -62.5t115 -79.5t92 -91.5t42 -108.5q0 -39 -24 -102l-58 -146q-27 -67 -40.5 -117.5t-14.5 -77t6 -43t15 -20.5t18 -4q42 0 118.5 96.5t194.5 298.5q33 -3 68 -28t47 -54q-54 -93 -96.5 -159t-99 -138t-108 -116t-115 -72.5t-128.5 -28.5
q-51 0 -95 15t-80 51t-53 89.5t-6.5 138t52.5 188.5l66 166q18 46 18 71q0 15 -6 28.5t-24 32.5t-28.5 28t-41.5 36q-132 -288 -267 -517t-215 -300z" />
    <glyph glyph-name="F_r" unicode="Fr" horiz-adv-x="2484" 
d="M1544 1296l-178 -444h186l-65 -164h-189l-131 -328q-225 -563 -665 -563q-124 0 -222 39t-158 105t-91 147t-31 170q0 95 36 180t100 147.5t161 95.5t211 24v-271q-55 4 -97.5 -6.5t-66.5 -28.5t-39.5 -44t-20.5 -49.5t-5 -47.5q0 -84 59 -137t137 -53q131 0 235.5 117.5
t198.5 340.5l64 162h-182l67 164h182l183 453q-105 8 -313.5 58t-291.5 50q-106 0 -157 -46t-51 -110q0 -58 38.5 -89t90.5 -31q37 0 73 15.5t53 30.5l17 15l131 -199q-5 -5 -13.5 -12.5t-37.5 -26.5t-61 -34t-81.5 -27t-99.5 -12q-98 0 -182 40.5t-139.5 125.5t-55.5 198
q0 81 28.5 153.5t84 131.5t147.5 94t209 35q87 0 202.5 -21.5t202 -44.5t194.5 -36.5t180 2.5q53 46 121.5 72t138.5 26l59 -176q-4 -2 -11.5 -5.5t-29 -18.5t-41 -34.5t-43.5 -55t-41 -77.5zM1411 0q-32 3 -66.5 28t-46.5 54q78 75 209 292t269 523q-32 34 -48 62t-16 63
q0 74 62.5 147t130.5 95l133 -74l-66 -164q20 -18 66.5 -48.5t89 -60.5t85.5 -66.5t69 -80t26 -86.5q0 -39 -24 -102l-58 -146q-27 -67 -40.5 -117.5t-14.5 -77t6 -43t15 -20.5t18 -4q42 0 118.5 96.5t194.5 298.5q33 -3 68 -28t47 -54q-54 -93 -96.5 -159t-99 -138
t-108 -116t-115 -72.5t-128.5 -28.5q-51 0 -95 15t-80 51t-53 89.5t-6.5 138t52.5 188.5l65 166q19 49 19 71q0 19 -16.5 42t-30 35.5t-54.5 47.5q-132 -289 -266.5 -517.5t-214.5 -299.5z" />
    <glyph glyph-name="E_s" unicode="Es" horiz-adv-x="2312" 
d="M1178 1018q-166 0 -291 98q1 -49 13 -94t27 -74.5t33 -54t29 -35t17 -14.5l-156 -232q-4 3 -11.5 9t-32 20.5t-51 25.5t-67.5 20t-82 9q-132 0 -212.5 -84.5t-80.5 -222.5q0 -137 81 -230t218 -93q69 0 129 26.5t99.5 72t62 102t21 120.5t-26.5 123l272 78
q57 -171 30.5 -318.5t-109 -256.5t-211.5 -171.5t-277 -62.5q-129 0 -242 47.5t-191.5 128.5t-123.5 192t-45 234q0 134 53.5 252.5t140 197.5t198 120t224.5 30q-20 55 -20 143q0 165 80 301q-60 170 -51 373l209 -29q-3 -85 12 -159q150 102 332 102q100 0 178 -30
t123 -80.5t67.5 -108.5t22.5 -121q0 -145 -107 -249.5t-284 -104.5zM1157 1434q-114 0 -194 -86q87 -93 196 -93q55 0 94 23.5t39 64.5q0 40 -38 65.5t-97 25.5zM1270 -27q-32 3 -66.5 29t-46.5 55q72 72 151 185t201 329q151 267 293 564l283 -72q-25 -135 -26.5 -277.5
t8.5 -285.5t10 -181q0 -60 -11 -106q80 63 147 147.5t138 208.5q33 -3 68 -28t47 -54q-49 -88 -97 -157.5t-113 -138.5t-134.5 -115t-159.5 -74.5t-190 -28.5q-32 0 -70 5t-90.5 18.5t-102.5 43.5t-84 73q115 71 181 112q25 -28 63 -28q53 0 80 56t27 198q0 25 -3 142.5
t-1 176.5q-113 -219 -148 -283q-92 -165 -195.5 -317t-158.5 -197z" />
    <glyph glyph-name="I_r" unicode="Ir" horiz-adv-x="2295" 
d="M803 526l297 738h-1l-1 -1h-1h-1l-1 -1h-1h-1l-1 -1h-1h-1h-1l-1 -1h-1h-1l-1 -1h-1h-1l-1 -1h-1h-1l-1 -1h-1h-1l-1 -1h-1h-1q-231 -73 -314 -115q-149 -77 -150 -180q0 -65 46.5 -94t97.5 -29v-267q-187 0 -303.5 105.5t-114.5 271.5q0 59 14.5 111.5t39 94.5t64 80.5
t81 67.5t100.5 58t111.5 50.5t124 46t129 42.5t135.5 43t135 45q130 137 299 137l59 -176q-4 -2 -11.5 -5.5t-29 -18.5t-41 -34.5t-43.5 -54.5t-41 -77l-401 -998q-53 -135 -122 -237.5t-137.5 -163t-147 -98.5t-144.5 -51t-137 -13q-121 0 -218.5 39t-157 105t-91 147
t-31.5 170q0 96 36.5 181.5t101 147.5t161 94.5t209.5 23.5v-271q-68 5 -116.5 -11t-71 -46t-32 -58.5t-9.5 -58.5q0 -79 60 -135.5t146 -56.5q136 0 244 118t199 340zM1223 0q-32 3 -66.5 28t-46.5 54q78 75 208.5 292t268.5 523q-63 66 -63 125q0 74 62 147t130 95
l133 -74l-65 -164q20 -18 66.5 -48.5t89 -60.5t85.5 -66.5t69 -80t26 -86.5q0 -37 -25 -102l-57 -146q-27 -67 -40.5 -117.5t-15 -77t5.5 -43t15 -20.5t18 -4q82 0 314 395q32 -3 67 -28t47 -54q-54 -94 -96.5 -159.5t-98.5 -137.5t-107.5 -116t-115 -72.5t-128.5 -28.5
q-51 0 -95 15t-80.5 51t-53 89.5t-6.5 138t52 188.5l66 166q18 46 18 71q0 15 -6 28.5t-24 32.5t-28.5 28t-41.5 36q-132 -289 -266.5 -517.5t-214.5 -299.5z" />
    <glyph glyph-name="I_s" unicode="Is" horiz-adv-x="2236" 
d="M803 526l297 738h-1l-1 -1h-1h-1l-1 -1h-1h-1l-1 -1h-1h-1h-1l-1 -1h-1h-1l-1 -1h-1h-1l-1 -1h-1h-1l-1 -1h-1h-1l-1 -1h-1h-1q-231 -73 -314 -115q-149 -77 -150 -180q0 -65 46.5 -94t97.5 -29v-267q-187 0 -303.5 105.5t-114.5 271.5q0 59 14.5 111.5t39 94.5t64 80.5
t81 67.5t100.5 58t111.5 50.5t124 46t129 42.5t135.5 43t135 45q130 137 299 137l59 -176q-4 -2 -11.5 -5.5t-29 -18.5t-41 -34.5t-43.5 -54.5t-41 -77l-401 -998q-53 -135 -122 -237.5t-137.5 -163t-147 -98.5t-144.5 -51t-137 -13q-121 0 -218.5 39t-157 105t-91 147
t-31.5 170q0 96 36.5 181.5t101 147.5t161 94.5t209.5 23.5v-271q-68 5 -116.5 -11t-71 -46t-32 -58.5t-9.5 -58.5q0 -79 60 -135.5t146 -56.5q136 0 244 118t199 340zM1194 -27q-32 3 -66.5 29t-46.5 55q72 72 152 185t201 329q145 256 292 564l283 -72
q-25 -135 -26.5 -277.5t8.5 -285.5t10 -181q0 -64 -10 -106q79 63 146 147.5t138 208.5q33 -3 68 -28t47 -54q-49 -88 -97 -157.5t-113 -138.5t-134.5 -115t-159.5 -74.5t-190 -28.5q-32 0 -70 5t-90 18.5t-102 43.5t-84 73q114 71 180 112q25 -28 63 -28q53 0 80 56t27 198
q0 25 -3 142.5t-1 176.5q-113 -219 -148 -283q-92 -165 -195.5 -317t-158.5 -197z" />
    <glyph glyph-name="W_r" unicode="Wr" horiz-adv-x="3205" 
d="M1769 618l299 738q158 389 605 301l-54 -232q-56 4 -99.5 3t-84.5 -39t-76 -121l-286 -713q-37 -92 -81.5 -175.5t-108.5 -169t-134.5 -147t-162 -100.5t-189.5 -39q-73 0 -127 21t-81.5 55.5t-39.5 71t-10 73.5q-33 -37 -74.5 -72t-96.5 -70.5t-122.5 -57t-134.5 -21.5
q-73 0 -126.5 25t-86 76t-40.5 124.5t12.5 176t70.5 225.5l247 614q-237 -75 -307 -105q-170 -72 -200 -160q-7 -23 -7 -46q0 -65 46.5 -94t97.5 -29v-266q-187 0 -303.5 106.5t-114.5 272.5q0 59 14.5 111.5t39 94.5t64.5 80t81.5 67t100.5 58t112 50t124.5 45.5t129 42.5
t135.5 43t135 45q61 81 147 131.5t189 50.5l59 -176q-4 -2 -11.5 -5.5t-29 -19t-41 -35t-43.5 -55t-41 -78.5l-331 -827q-28 -69 -43 -119t-18.5 -78t1.5 -44.5t14 -21.5t23 -5q73 0 175 120.5t181 296.5l353 871h327l-411 -1020q-28 -69 -43 -119t-18.5 -78t1.5 -44.5
t14 -21.5t23 -5q74 0 177 122.5t179 296.5zM2132 0q-32 3 -66.5 28t-46.5 54q78 75 209 292t269 523q-32 34 -48 62t-16 63q0 74 62.5 147t130.5 95l133 -74l-66 -164q20 -18 66.5 -48.5t89 -60.5t85.5 -66.5t69 -80t26 -86.5q0 -37 -25 -102l-57 -146q-27 -67 -40.5 -117.5
t-14.5 -77t6 -43t15 -20.5t18 -4q42 0 118.5 96.5t194.5 298.5q33 -3 68 -28t47 -54q-54 -93 -96.5 -159t-99 -138t-108 -116t-115 -72.5t-128.5 -28.5q-51 0 -95 15t-80 51t-53 89.5t-6.5 138t52.5 188.5l65 166q19 49 19 71q0 19 -16.5 42t-30 35.5t-54.5 47.5
q-132 -289 -266.5 -517.5t-214.5 -299.5z" />
    <glyph glyph-name="W_i" unicode="Wi" horiz-adv-x="2869" 
d="M1769 618l299 738q22 56 53.5 106.5t78 101t112.5 80t142 29.5q96 0 180 -42t172 -120q58 -14 96.5 -62t38.5 -110q0 -72 -54 -126t-126 -54q-83 0 -134.5 63t-41.5 152q-64 48 -123.5 22t-102.5 -128l-286 -713q-37 -92 -81.5 -175.5t-108.5 -169t-134.5 -147
t-162 -100.5t-189.5 -39q-73 0 -127 21t-81.5 55.5t-39.5 71t-10 73.5q-33 -37 -74.5 -72t-96.5 -70.5t-122.5 -57t-134.5 -21.5q-73 0 -126.5 25t-86 76t-40.5 124.5t12.5 176t70.5 225.5l247 614q-237 -75 -307 -105q-170 -72 -200 -160q-7 -23 -7 -46q0 -65 46.5 -94
t97.5 -29v-266q-187 0 -303.5 106.5t-114.5 272.5q0 59 14.5 111.5t39 94.5t64.5 80t81.5 67t100.5 58t112 50t124.5 45.5t129 42.5t135.5 43t135 45q61 81 147 131.5t189 50.5l59 -176q-4 -2 -11.5 -5.5t-29 -19t-41 -35t-43.5 -55t-41 -78.5q-329 -819 -331 -827
q-28 -69 -43 -119t-18.5 -78t1.5 -44.5t14 -21.5t23 -5q73 0 175 120.5t181 296.5l353 871h327l-411 -1020q-28 -69 -43 -119t-18.5 -78t1.5 -44.5t14 -21.5t23 -5q74 0 177 122.5t179 296.5zM2908 569q33 -3 68 -28t47 -54q-294 -514 -598 -514q-57 0 -103 18t-78.5 58.5
t-45.5 99.5t1 147t58 196l231 571h326l-254 -627q-26 -66 -40.5 -115.5t-17.5 -77t2.5 -43.5t14 -21t21.5 -5q63 0 162 105t206 290z" />
    <glyph glyph-name="W_h" unicode="Wh" horiz-adv-x="3469" 
d="M3508 569q33 -3 68 -28t47 -54q-66 -115 -131 -203t-141 -161t-161 -111.5t-175 -38.5q-81 0 -134 32.5t-76.5 96.5t-10 165.5t66.5 232.5l31 75q8 21 22 56.5t20.5 53t14.5 39.5t11 35.5t3 22.5q0 21 -15 33t-40 12q-40 0 -104.5 -38t-124.5 -107l-277 -682h-325
l557 1376q-190 91 -275 -108l-286 -713q-37 -92 -81.5 -175.5t-108.5 -169t-134.5 -147t-162 -100.5t-189.5 -39q-73 0 -127 21t-81.5 55.5t-39.5 71t-10 73.5q-33 -37 -74.5 -72t-96.5 -70.5t-122.5 -57t-134.5 -21.5q-73 0 -126.5 25t-86 76t-40.5 124.5t12.5 176
t70.5 225.5l247 614q-237 -75 -307 -105q-170 -72 -200 -160q-7 -23 -7 -46q0 -65 46.5 -94t97.5 -29v-266q-187 0 -303.5 106.5t-114.5 272.5q0 59 14.5 111.5t39 94.5t64.5 80t81.5 67t100.5 58t112 50t124.5 45.5t129 42.5t135.5 43t135 45q61 81 147 131.5t189 50.5
l59 -176q-4 -2 -11.5 -5.5t-29 -19t-41 -35t-43.5 -55t-41 -78.5l-331 -827q-28 -69 -43 -119t-18.5 -78t1.5 -44.5t14 -21.5t23 -5q73 0 175 120.5t181 296.5l353 871h327l-411 -1020q-28 -69 -43 -119t-18.5 -78t1.5 -44.5t14 -21.5t23 -5q74 0 177 122.5t179 296.5
q30 73 299 738q128 317 412 317q126 0 249 -47.5t267 -157.5l-207 -514q6 6 17.5 15t48 32.5t74 41.5t91.5 32.5t105 14.5q95 0 146 -48t51 -131q0 -78 -62 -231l-100 -244q-27 -68 -41 -117.5t-17 -76.5t3 -43t14.5 -20.5t20.5 -4.5q63 0 162 105t206 290z" />
    <glyph glyph-name="V_s" unicode="Vs" horiz-adv-x="2623" 
d="M1157 1282l-203 -928q126 97 232.5 213.5t181 235t131.5 237t92.5 235t55.5 212t28 184.5l303 41q-5 -66 -13.5 -130t-28 -161t-46.5 -188.5t-73 -205t-103.5 -217.5t-141 -219.5t-183 -218.5t-233 -207.5t-286.5 -191.5h-317l266 1203q-246 -79 -289 -96
q-188 -71 -236 -152q-20 -35 -20 -74q0 -65 46.5 -94t97.5 -29v-266q-187 0 -303.5 106.5t-114.5 272.5q0 59 14.5 111t38 93.5t63 79.5t80.5 67t99 58t110 49.5t122.5 45.5t127.5 42.5t134 42.5t133 44q53 81 142.5 133.5t213.5 52.5l59 -176q-6 -1 -15.5 -4t-35 -17
t-48 -34t-46 -60t-35.5 -90zM1581 -27q-32 3 -66.5 29t-46.5 55q72 72 152 185t201 329q151 267 293 564l282 -72q-25 -135 -26.5 -277.5t8.5 -285.5t10 -181q0 -64 -10 -106q79 63 146 147.5t138 208.5q33 -3 68 -28t47 -54q-49 -88 -97 -157.5t-113 -138.5t-134.5 -115
t-159.5 -74.5t-190 -28.5q-32 0 -70 5t-90 18.5t-102 43.5t-84 73q114 71 180 112q25 -28 63 -28q53 0 80 56t27 198q0 25 -3 142.5t-1 176.5q-113 -219 -148 -283q-92 -165 -195.5 -317t-158.5 -197z" />
    <glyph glyph-name="T_r" unicode="Tr" horiz-adv-x="2381" 
d="M1309 0q-32 3 -66.5 28t-46.5 54q78 75 208.5 292t268.5 523q-63 66 -63 125q0 70 57 140.5t123 97.5q-156 0 -291 22l-330 -813q-223 -563 -669 -563q-98 0 -181 26t-141 70t-99 103t-60 125.5t-19 136.5q0 94 35 178t98.5 147t161 96.5t213.5 24.5v-270
q-68 5 -116.5 -11t-71 -46t-32 -59.5t-9.5 -61.5q0 -85 59 -137t141 -52q137 0 235.5 113t194.5 346l285 704q-23 5 -88 19.5t-91 20t-82.5 17.5t-85 17.5t-74.5 13.5t-75 11.5t-61.5 6.5t-58.5 3q-102 0 -153.5 -37.5t-51.5 -97.5q0 -56 40.5 -87.5t92.5 -31.5q36 0 71 15
t53 31l17 15l131 -198q-5 -5 -13.5 -12.5t-37.5 -27t-60.5 -34.5t-81 -27t-100.5 -12q-99 0 -183 40.5t-138.5 126.5t-54.5 202q0 63 16.5 121t54 111t92.5 92t138.5 62t185.5 23q111 0 279 -29.5t314 -64.5t316 -64.5t285 -29.5q84 0 146 15t82 29l20 15l170 -94
q-1 -5 -3 -13.5t-12.5 -33t-26.5 -46.5t-47.5 -49.5t-71.5 -47.5t-102.5 -34t-136.5 -15l127 -70l-65 -164q20 -18 66.5 -48.5t89 -60.5t85.5 -66.5t69 -80t26 -86.5q0 -37 -25 -102l-57 -146q-27 -67 -40.5 -117.5t-15 -77t5.5 -43t15 -20.5t18 -4q82 0 314 395
q32 -3 67 -28t47 -54q-54 -94 -96.5 -159.5t-98.5 -137.5t-107.5 -116t-115 -72.5t-128.5 -28.5q-51 0 -95 15t-80.5 51t-53 89.5t-6.5 138t52 188.5l66 166q18 46 18 71q0 15 -6 28.5t-24 32.5t-28.5 28t-41.5 36q-132 -289 -266.5 -517.5t-214.5 -299.5z" />
    <glyph glyph-name="T_i" unicode="Ti" horiz-adv-x="2019" 
d="M479 176q71 0 131 30t111.5 93t95 142.5t90.5 193.5l281 698q-37 9 -138 32.5t-146 33t-117 24t-122 20t-92 5.5q-52 0 -90.5 -10.5t-59 -25t-32.5 -34.5t-15 -34t-3 -29q0 -53 38 -89t95 -36q36 0 71 16.5t53 32.5l17 16l131 -198q-4 -5 -12 -12.5t-36 -27t-58.5 -34.5
t-79 -27t-98.5 -12q-58 0 -113 15t-104.5 45.5t-86.5 74t-59 104.5t-22 132q0 79 27.5 149t82.5 129t150.5 94t220.5 35q116 0 283 -32.5t310 -72t315 -72t298 -32.5q11 62 61 104t115 42q74 0 127 -52.5t53 -133.5q0 -14 -0.5 -22t-6 -36t-16.5 -47t-36 -46t-59 -43.5
t-90.5 -29t-126.5 -12.5q-123 0 -326 33l-322 -801q-228 -563 -671 -563q-121 0 -218.5 39t-157 105t-91 147t-31.5 170q0 95 36 180t100.5 147.5t161.5 95t210 23.5v-270q-55 4 -97.5 -6.5t-66.5 -28.5t-39.5 -44t-20.5 -49.5t-5 -47.5q0 -86 59 -138.5t141 -52.5z
M2058 569q33 -3 68 -28t47 -54q-63 -109 -128.5 -197.5t-141 -162t-160 -114t-168.5 -40.5q-57 0 -103.5 18t-79 58.5t-45 99.5t1.5 147t58 196l231 571h326l-254 -627q-26 -66 -40.5 -115.5t-17.5 -77t2.5 -43.5t14 -21t21.5 -5q63 0 161 104.5t207 290.5z" />
    <glyph glyph-name="S_r" unicode="Sr" horiz-adv-x="2433" 
d="M250 449q0 -95 39 -166q100 94 643 583q-53 236 -53 383q0 224 112.5 356t296.5 132q66 0 120.5 -19t90.5 -50t61.5 -71.5t36.5 -84t11 -87.5q0 -71 -27.5 -144t-83.5 -148.5t-110.5 -135.5t-137.5 -141q45 -229 45 -369q0 -202 -89 -355.5t-243 -234.5t-348 -81
q-207 0 -374 98q-80 -95 -110 -189t-9 -210h-213q-46 263 168 546q-117 158 -117 375q0 115 34.5 215.5t93 172.5t138 122t167 69t183 7t183.5 -57l-99 -248q-62 31 -123.5 35t-112 -17.5t-90 -61.5t-61.5 -98.5t-22 -125.5zM989 504q0 17 -3.5 52t-4.5 50
q-100 -93 -524 -475q65 -33 153 -33q166 0 272.5 116.5t106.5 289.5zM1180 1278q0 -65 16 -156q82 85 119 147.5t37 116.5q0 76 -66 76q-35 0 -58.5 -21t-32.5 -55t-12 -58t-3 -50zM1360 0q-32 3 -66.5 28t-46.5 54q78 75 208.5 292t268.5 523q-63 66 -63 125q0 74 62 147
t130 95l134 -74l-66 -164q20 -18 66.5 -48.5t89 -60.5t85.5 -66.5t69 -80t26 -86.5q0 -37 -25 -102l-57 -146q-27 -67 -40.5 -117.5t-14.5 -77t6 -43t15 -20.5t18 -4q42 0 118.5 96.5t194.5 298.5q33 -3 68 -28t47 -54q-54 -93 -96.5 -159t-99 -138t-108 -116t-115 -72.5
t-128.5 -28.5q-51 0 -95 15t-80 51t-53 89.5t-6.5 138t52.5 188.5l65 166q19 49 19 71q0 19 -16.5 42t-30 35.5t-54.5 47.5q-132 -289 -266.5 -517.5t-214.5 -299.5z" />
    <glyph glyph-name="P_s" unicode="Ps" horiz-adv-x="2340" 
d="M795 1038l-125 -305q71 -39 150.5 -42.5t150.5 28.5t129 87t92.5 136.5t34.5 173.5q0 53 -11.5 103t-41 101t-74 88.5t-116.5 61t-163 23.5q-105 0 -197.5 -30t-157 -79.5t-111 -111.5t-69 -127.5t-22.5 -126.5q0 -44 12 -91t24 -73l11 -25l-217 -161q-4 6 -11 17.5
t-24 48.5t-30 75t-24 94.5t-11 110.5q0 65 14.5 133.5t46.5 140.5t78 138.5t114.5 125t150.5 102t191 68.5t232 25q146 0 267.5 -36t203.5 -96.5t138.5 -142t82 -170.5t25.5 -184q0 -160 -71.5 -304t-198 -237t-301 -114t-381.5 63l-221 -553h-326l457 1135q22 55 59 106
t87.5 95t117.5 70t141 26l60 -176q-4 -2 -11.5 -5.5t-29 -19.5t-41 -35.5t-43.5 -54.5t-41 -76zM1298 -27q-32 3 -66 28.5t-46 55.5q72 72 151 185t201 329q151 267 293 564l283 -72q-25 -135 -27 -277.5t8 -286t10 -180.5q0 -64 -10 -106q80 63 147 147.5t138 208.5
q32 -3 67 -28t47 -54q-49 -88 -97 -157.5t-113 -138.5t-134.5 -115t-159.5 -74.5t-190 -28.5q-32 0 -70 5t-90 18.5t-102 43.5t-84 73q114 71 180 112q25 -28 64 -28q53 0 79.5 56t26.5 198q0 25 -3 142.5t-1 176.5q-124 -242 -147 -283q-92 -164 -196 -316t-159 -198z" />
    <glyph glyph-name="P_r" unicode="Pr" horiz-adv-x="2390" 
d="M795 1038l-125 -305q71 -39 150.5 -42.5t150.5 28.5t129 87t92.5 136.5t34.5 173.5q0 53 -11.5 103t-41 101t-74 88.5t-116.5 61t-163 23.5q-105 0 -197.5 -30t-157 -79.5t-111 -111.5t-69 -127.5t-22.5 -126.5q0 -44 12 -91t24 -73l11 -25l-217 -161q-4 6 -11 17.5
t-24 48.5t-30 75t-24 94.5t-11 110.5q0 65 14.5 133.5t46.5 140.5t78 138.5t114.5 125t150.5 102t191 68.5t232 25q146 0 267.5 -36t203.5 -96.5t138.5 -142t82 -170.5t25.5 -184q0 -160 -71.5 -304t-198 -237t-301 -114t-381.5 63l-221 -553h-326l457 1135q22 55 59 106
t87.5 95t117.5 70t141 26l60 -176q-4 -2 -11.5 -5.5t-29 -19.5t-41 -35.5t-43.5 -54.5t-41 -76zM1317 0q-32 3 -66.5 28t-46.5 54q78 75 208.5 292t268.5 523q-63 66 -63 125q0 74 62 147t130 95l134 -74l-66 -164q20 -18 66.5 -48.5t89 -60.5t85.5 -66.5t69 -80t26 -86.5
q0 -37 -25 -102l-57 -146q-27 -67 -40.5 -117.5t-14.5 -77t6 -43t15 -20.5t18 -4q42 0 118.5 96.5t194.5 298.5q33 -3 68 -28t47 -54q-54 -93 -96.5 -159t-99 -138t-108 -116t-115 -72.5t-128.5 -28.5q-51 0 -95 15t-80 51t-53 89.5t-6.5 138t52.5 188.5l65 166q18 46 18 71
q0 15 -6 28.5t-24 32.5t-28.5 28t-41.5 36q-132 -289 -266.5 -517.5t-214.5 -299.5z" />
    <glyph glyph-name="M_s" unicode="Ms" horiz-adv-x="3276" 
d="M1008 1581l258 -164q85 68 184 107t176 39q92 0 147 -57t58 -144q99 97 217 149t205 52q96 0 149.5 -60.5t53.5 -152.5q0 -94 -76 -285l-428 -1061q-17 -48 -22.5 -82t1 -66t31 -57.5t68.5 -48.5l-101 -248q-116 39 -190 99.5t-102.5 135t-24.5 155.5t37 171l354 879
q94 227 94 270q0 48 -53 48q-52 0 -134 -51t-157 -136l-440 -1100h-326l389 969q94 227 94 270q0 48 -55 48q-48 0 -125.5 -47.5t-154.5 -125.5l-447 -1114h-326l521 1295q-41 -14 -103 -33.5t-101.5 -32t-92.5 -30.5t-87 -32.5t-74 -33t-64 -37t-45.5 -41t-31.5 -47.5
t-10 -53q0 -65 46.5 -94t97.5 -29v-266q-187 0 -303.5 105t-114.5 271q0 77 25 143t65 115t105 93t130.5 75t156.5 64t168 57t180 57.5t178 61.5zM2234 -27q-32 3 -66 28.5t-46 55.5q72 72 151 185t201 329q151 267 293 564l282 -72q-25 -135 -26.5 -277.5t8.5 -285.5
t10 -181q0 -64 -10 -106q80 63 147 147.5t138 208.5q32 -3 67 -28t47 -54q-49 -88 -97 -157.5t-113 -138.5t-134.5 -115t-159.5 -74.5t-190 -28.5q-32 0 -70 5t-90 18.5t-102 43.5t-84 73q114 71 180 112q25 -28 64 -28q53 0 79.5 56t26.5 198q0 25 -3 142.5t-1 176.5
q-124 -242 -147 -283q-92 -164 -196 -316t-159 -198z" />
    <glyph glyph-name="M_r" unicode="Mr" horiz-adv-x="3325" 
d="M1008 1581l258 -164q85 68 184 107t176 39q92 0 147 -57t58 -144q99 97 217 149t205 52q96 0 149.5 -60.5t53.5 -152.5q0 -94 -76 -285l-428 -1061q-17 -48 -22.5 -82t1 -66t31 -57.5t68.5 -48.5l-101 -248q-116 39 -190 99.5t-102.5 135t-24.5 155.5t37 171l354 879
q94 227 94 270q0 48 -53 48q-52 0 -134 -51t-157 -136l-440 -1100h-326l389 969q94 227 94 270q0 48 -55 48q-48 0 -125.5 -47.5t-154.5 -125.5l-447 -1114h-326l521 1295q-41 -14 -103 -33.5t-101.5 -32t-92.5 -30.5t-87 -32.5t-74 -33t-64 -37t-45.5 -41t-31.5 -47.5
t-10 -53q0 -65 46.5 -94t97.5 -29v-266q-187 0 -303.5 105t-114.5 271q0 77 25 143t65 115t105 93t130.5 75t156.5 64t168 57t180 57.5t178 61.5zM2253 0q-32 3 -66.5 28t-46.5 54q78 75 208.5 292t268.5 523q-63 66 -63 125q0 74 62 147t130 95l133 -74l-65 -164
q20 -18 66.5 -48.5t89 -60.5t85.5 -66.5t69 -80t26 -86.5q0 -37 -25 -102l-57 -146q-27 -67 -40.5 -117.5t-14.5 -77t6 -43t15 -20.5t18 -4q42 0 118.5 96.5t194.5 298.5q33 -3 68 -28t47 -54q-54 -93 -96.5 -159t-99 -138t-108 -116t-115 -72.5t-128.5 -28.5q-51 0 -95 15
t-80.5 51t-53 89.5t-6.5 138t52 188.5l66 166q18 46 18 71q0 15 -6 28.5t-24 32.5t-28.5 28t-41.5 36q-132 -289 -266.5 -517.5t-214.5 -299.5z" />
    <glyph glyph-name="K_r" unicode="Kr" horiz-adv-x="2852" 
d="M1163 553l-24 4l-78 -197q-53 -135 -122 -237.5t-137.5 -163t-146.5 -98.5t-144 -51t-136 -13q-98 0 -181 26t-141 70t-99 103t-60 125.5t-19 136.5q0 96 36.5 181.5t101 147.5t161 94.5t209.5 23.5v-271q-68 5 -116.5 -11t-71 -46t-32 -58.5t-9.5 -58.5q0 -79 60 -135.5
t146 -56.5q141 0 245.5 116t197.5 342l274 680q-43 -12 -105 -28t-99.5 -25.5t-84.5 -24t-75 -29t-54 -34.5t-37.5 -46t-11.5 -58q0 -65 46.5 -94t97.5 -29v-267q-187 0 -303.5 105.5t-114.5 271.5q0 74 21.5 134.5t57 104t93 81.5t116 63t140 51.5t152 45.5t165 46.5
t166.5 51.5q130 137 299 137l60 -176q-4 -2 -11.5 -5.5t-29 -18.5t-41 -34.5t-43.5 -55t-41 -77.5l-221 -544q77 -17 144.5 -1.5t132.5 87.5t122 202l127 314q157 391 606 303l-53 -232q-56 4 -99.5 3t-84.5 -39t-76 -121l-86 -207q-175 -430 -473 -483q161 -105 106 -420
l-53 -308q-11 -113 13.5 -152t119.5 -38v-233q-117 -20 -209.5 5.5t-146.5 85t-76.5 144t-7.5 182.5l45 269q28 127 22 213.5t-35.5 135.5t-93.5 91zM1780 0q-32 3 -66.5 28t-46.5 54q78 75 208.5 292t268.5 523q-63 66 -63 125q0 74 62 147t130 95l133 -74l-65 -164
q20 -18 66.5 -48.5t89 -60.5t85.5 -66.5t69 -80t26 -86.5q0 -37 -25 -102l-57 -146q-27 -67 -40.5 -117.5t-15 -77t5.5 -43t15 -20.5t18 -4q82 0 314 395q32 -3 67 -28t47 -54q-54 -94 -96.5 -159.5t-98.5 -137.5t-107.5 -116t-115 -72.5t-128.5 -28.5q-51 0 -95 15
t-80.5 51t-53 89.5t-6.5 138t52 188.5l66 166q18 46 18 71q0 15 -6 28.5t-24 32.5t-28.5 28t-41.5 36q-132 -289 -266.5 -517.5t-214.5 -299.5z" />
    <glyph glyph-name="K_l" unicode="Kl" horiz-adv-x="2560" 
d="M2599 569q33 -3 68 -28t47 -54q-62 -109 -127.5 -197.5t-140.5 -162t-159.5 -114t-168.5 -40.5q-57 0 -103 18t-78.5 58.5t-45.5 99.5t1 147t58 196l356 884q-186 90 -268 -108l-86 -207q-174 -430 -473 -483q161 -105 106 -420l-53 -308q-11 -113 13.5 -152t119.5 -38
v-233q-117 -20 -209.5 5.5t-146.5 85t-76.5 144t-7.5 182.5l45 269q28 127 22 213.5t-35.5 135.5t-93.5 91l-24 4l-78 -197q-53 -135 -122 -237.5t-137.5 -163t-146.5 -98.5t-144 -51t-136 -13q-98 0 -181 26t-141 70t-99 103t-60 125.5t-19 136.5q0 96 36.5 181.5
t101 147.5t161 94.5t209.5 23.5v-271q-68 5 -116.5 -11t-71 -46t-32 -58.5t-9.5 -58.5q0 -79 60 -135.5t146 -56.5q140 0 245 116.5t198 341.5l274 680q-43 -12 -105 -28t-99.5 -25.5t-84.5 -24t-75 -29t-54 -34.5t-37.5 -46t-11.5 -58q0 -65 46.5 -94t97.5 -29v-267
q-187 0 -303.5 105.5t-114.5 271.5q0 74 21.5 134.5t57 104t93 81.5t116 63t140 51.5t152 45.5t165 46.5t166.5 51.5q130 137 299 137l60 -176q-4 -2 -11.5 -5.5t-29.5 -19.5t-41.5 -35.5t-43 -54.5t-40.5 -76l-221 -544q77 -17 144.5 -1.5t132.5 87.5t122 202l127 316
q22 55 55 105.5t82.5 101t120 80.5t151.5 30q129 0 251 -47.5t264 -157.5l-416 -1032q-27 -67 -41.5 -116.5t-17.5 -76.5t2.5 -43.5t14 -21t21.5 -4.5q62 0 160 104.5t207 290.5z" />
    <glyph glyph-name="K_i" unicode="Ki" horiz-adv-x="2539" 
d="M803 526l274 680q-43 -12 -105 -28t-99.5 -25.5t-84.5 -24t-75 -29t-54 -34.5t-37.5 -46t-11.5 -58q0 -65 46.5 -94t97.5 -29v-267q-187 0 -303.5 105.5t-114.5 271.5q0 74 21.5 134.5t57 104t93 81.5t116 63t140 51.5t152 45.5t165 46.5t166.5 51.5q130 137 299 137
l60 -176q-4 -2 -11.5 -5.5t-29.5 -19.5t-41.5 -35.5t-43 -54.5t-40.5 -76l-221 -544q77 -17 144.5 -1.5t132.5 87.5t122 202l127 316q23 56 54 106t77.5 100.5t112 80.5t141.5 30q101 0 181 -40.5t167 -121.5q58 -14 96.5 -62t38.5 -110q0 -72 -53.5 -126t-126.5 -54
q-83 0 -136.5 65.5t-39.5 147.5q-137 97 -219 -104q-15 -34 -43 -103.5t-43 -103.5q-174 -430 -473 -483q161 -105 106 -420q-9 -51 -26.5 -154t-26.5 -154q-11 -113 13.5 -152t119.5 -38v-233q-117 -20 -209.5 5.5t-146.5 85t-76.5 144t-7.5 182.5q7 44 22.5 134.5
t22.5 134.5q28 127 22 213.5t-35.5 135.5t-93.5 91l-24 4l-78 -197q-53 -135 -122 -237.5t-137.5 -163t-146.5 -98.5t-144 -51t-136 -13q-98 0 -181 26t-141 70t-99 103t-60 125.5t-19 136.5q0 96 36.5 181.5t101 147.5t161 94.5t209.5 23.5v-271q-68 5 -116.5 -11t-71 -46
t-32 -58.5t-9.5 -58.5q0 -79 60 -135.5t146 -56.5q140 0 245 116.5t198 341.5zM2578 569q33 -3 68 -28t47 -54q-62 -109 -127.5 -197.5t-140.5 -162t-159.5 -114t-168.5 -40.5q-57 0 -103 18t-78.5 58.5t-45.5 99.5t1 147t58 196l230 571h325l-252 -627
q-26 -66 -40.5 -115.5t-17.5 -77t2.5 -43.5t14 -21t21.5 -5q62 0 159.5 104t206.5 291z" />
    <glyph glyph-name="K_h" unicode="Kh" horiz-adv-x="3141" 
d="M3181 569q32 -3 67 -28t47 -54q-65 -115 -130.5 -203.5t-141 -161t-160.5 -111t-174 -38.5q-82 0 -135.5 32.5t-77 96.5t-10 165t66.5 233l31 75q72 179 72 207q0 21 -14.5 33t-38.5 12q-41 0 -106.5 -38t-125.5 -107l-276 -682h-326l557 1376q-186 90 -268 -108
l-86 -207q-174 -430 -473 -483q161 -105 106 -420l-53 -308q-11 -113 13.5 -152t119.5 -38v-233q-117 -20 -209.5 5.5t-146.5 85t-76.5 144t-7.5 182.5l45 269q28 127 22 213.5t-35.5 135.5t-93.5 91l-24 4l-78 -197q-55 -138 -126 -242.5t-140 -164t-148.5 -96
t-142.5 -48.5t-129 -12q-98 0 -181 26t-141 70t-99 103t-60 125.5t-19 136.5q0 96 36.5 181.5t101 147.5t161 94.5t209.5 23.5v-271q-68 5 -116.5 -11t-71 -46t-32 -58.5t-9.5 -58.5q0 -79 60 -135.5t146 -56.5q140 0 245 116.5t198 341.5l274 680q-43 -12 -105 -28
t-99.5 -25.5t-84.5 -24t-75 -29t-54 -34.5t-37.5 -46t-11.5 -58q0 -65 46.5 -94t97.5 -29v-267q-187 0 -303.5 105.5t-114.5 271.5q0 74 21.5 134.5t57 104t93 81.5t116 63t140 51.5t152 45.5t165 46.5t166.5 51.5q130 137 299 137l60 -176q-4 -2 -11.5 -5.5t-29.5 -19.5
t-41.5 -35.5t-43 -54.5t-40.5 -76l-221 -544q77 -17 144.5 -1.5t132.5 87.5t122 202l127 316q22 55 55 105.5t82.5 101t120 80.5t151.5 30q129 0 251 -47.5t264 -157.5l-207 -514q6 6 18 15t48.5 32.5t74 41.5t91.5 32.5t104 14.5q95 0 146.5 -48t51.5 -131q0 -76 -63 -231
l-99 -244q-27 -68 -41 -117.5t-17 -76.5t3 -43t14.5 -20.5t20.5 -4.5q62 0 160 104.5t207 290.5z" />
    <glyph glyph-name=".notdef" horiz-adv-x="1024" 
 />
    <glyph glyph-name=".null" horiz-adv-x="0" 
 />
    <glyph glyph-name=".null" horiz-adv-x="0" 
 />
    <glyph glyph-name="nonmarkingreturn" horiz-adv-x="682" 
 />
    <glyph glyph-name="CR" unicode="&#xd;" horiz-adv-x="778" 
 />
    <glyph glyph-name="space" unicode=" " horiz-adv-x="512" 
 />
    <glyph glyph-name="exclam" unicode="!" horiz-adv-x="833" 
d="M1526 752q-20 -7 -21 -22t15 -25l57 -41q11 -7 14.5 -14.5t-2 -13.5t-18.5 -9l-70 -13q-21 -3 -24.5 -16.5t10.5 -28.5l49 -49q13 -14 9 -24.5t-25 -10.5l-72 4q-20 0 -26.5 -11.5t5.5 -28.5l37 -62q10 -17 4 -25.5t-26 -5.5l-70 19q-18 6 -27.5 -5t-3.5 -30l23 -68
q8 -19 0 -26t-27 2l-63 31q-17 9 -28.5 1t-10.5 -30l10 -68q1 -21 -7.5 -25.5t-23.5 7.5l-57 43q-15 12 -28.5 5.5t-14.5 -26.5l-4 -69q-1 -20 -12 -23.5t-23 10.5l-47 56q-13 14 -26 12t-19 -22l-20 -68q-3 -13 -9.5 -18t-14 -1t-13.5 15l-35 61q-9 19 -22 19t-25 -19
l-31 -61q-6 -11 -13.5 -15t-14 1t-9.5 18l-20 68q-6 20 -19 22t-26 -12l-47 -56q-12 -14 -22 -10.5t-13 23.5l-4 69q-2 20 -15 26.5t-30 -5.5l-54 -43q-17 -13 -26.5 -8t-5.5 26l10 68q1 22 -10.5 30t-30.5 -1l-62 -31q-19 -9 -26.5 -2t0.5 26l22 68q8 19 -1.5 30t-28.5 5
l-70 -19q-20 -3 -26.5 5.5t3.5 25.5l39 62q11 17 4.5 28.5t-26.5 11.5l-72 -4q-21 0 -25 10.5t9 24.5l51 49q13 15 9 28.5t-25 16.5l-68 13q-21 4 -23.5 15.5t15.5 21.5l57 41q2 1 3.5 2.5l3 3l2.5 2.5t2 3l1 1q19 16 37 -12l33 -64q6 -12 13 -15.5t13.5 2t10.5 17.5l18 70
q6 19 19.5 21t25.5 -13l48 -53q14 -15 23 -11.5t11 23.5l4 70q3 20 15.5 25t27.5 -7l58 -43q17 -12 25.5 -7t4.5 25l-8 70q-3 20 8.5 28t28.5 -1l64 -29q19 -9 26.5 -1.5t1.5 26.5l-22 67q-8 19 0.5 29t27.5 4l15 -2q40 -77 70 -202.5t30 -217.5q-15 -18 -34.5 -27.5
t-59.5 -9.5h-8q0 46 -33 72q18 -21 18 -55v-15q-32 3 -32 39q0 43 -28 72t-77 29q-41 0 -68.5 -32t-27.5 -79q0 -60 49.5 -96.5t138.5 -36.5q85 0 172 42t156.5 112t125 154.5t86 175.5t30.5 169q0 59 -36.5 98t-94.5 39q-48 0 -85.5 -33.5t-37.5 -84.5q0 -106 119 -119
q-29 -119 -60 -174q-12 96 -43.5 178t-75.5 129q91 -120 107 -330l-29 -41q0 156 -51 287t-131 172q-5 9 2 18.5t22 12.5l70 12q19 3 21 13.5t-15 21.5l-59 39q-15 13 -13.5 26.5t19.5 20.5l64 28q14 4 19.5 11t0 14t-19.5 12l-64 27q-23 10 -20 29q11 6 14 16l35 61
q9 19 20.5 18t16.5 -20l20 -67q6 -21 18.5 -24t26.5 14l47 53q12 15 23 12.5t12 -22.5l4 -72q1 -21 14.5 -26.5t28.5 7.5l57 44q15 12 24 5.5t7 -26.5l-10 -70q-1 -20 10.5 -27.5t28.5 1.5l63 33q19 8 26.5 0t0.5 -29l-23 -64q-6 -20 3 -30t28 -4l70 14q20 6 26.5 -2
t-4.5 -27l-37 -59q-12 -17 -5.5 -29.5t26.5 -11.5l72 4q21 0 25 -11t-9 -24l-49 -53q-14 -13 -10.5 -26.5t24.5 -16.5l70 -12q43 -10 6 -39l-57 -39q-16 -10 -15 -24t21 -21l63 -27q12 -5 16.5 -12t0 -13.5t-16.5 -11.5zM745 336q106 0 212.5 65t183.5 162t125.5 212
t48.5 214q0 63 -41 101q24 -38 24 -84q0 -100 -47.5 -215.5t-126.5 -215.5q-85 -105 -188.5 -168t-212.5 -63q-59 0 -100 18q42 -26 122 -26z" />
    <glyph glyph-name="quotedbl" unicode="&#x22;" horiz-adv-x="1024" 
d="M1526 752q-20 -7 -21 -22t15 -25l57 -41q11 -7 14.5 -14.5t-2 -13.5t-18.5 -9l-70 -13q-21 -3 -24.5 -16.5t10.5 -28.5l49 -49q13 -14 9 -24.5t-25 -10.5l-72 4q-20 0 -26.5 -11.5t5.5 -28.5l37 -62q10 -17 4 -25.5t-26 -5.5l-70 19q-18 6 -27.5 -5t-3.5 -30l23 -68
q8 -19 0 -26t-27 2l-63 31q-17 9 -28.5 1t-10.5 -30l10 -68q1 -21 -7.5 -25.5t-23.5 7.5l-57 43q-15 12 -28.5 5.5t-14.5 -26.5l-4 -69q-1 -20 -12 -23.5t-23 10.5l-47 56q-13 14 -26 12t-19 -22l-20 -68q-3 -13 -9.5 -18t-14 -1t-13.5 15l-35 61q-9 19 -22 19t-25 -19
l-31 -61q-6 -11 -13.5 -15t-14 1t-9.5 18l-20 68q-6 20 -19 22t-26 -12l-47 -56q-12 -14 -22 -10.5t-13 23.5l-4 69q-2 20 -15 26.5t-30 -5.5l-54 -43q-17 -13 -26.5 -8t-5.5 26l10 68q1 22 -10.5 30t-30.5 -1l-62 -31q-19 -9 -26.5 -2t0.5 26l22 68q8 19 -1.5 30t-28.5 5
l-70 -19q-20 -3 -26.5 5.5t3.5 25.5l39 62q11 17 4.5 28.5t-26.5 11.5l-72 -4q-21 0 -25 10.5t9 24.5l51 49q13 15 9 28.5t-25 16.5l-68 13q-21 4 -23.5 15.5t15.5 21.5l57 41q2 1 3.5 2.5l3 3l2.5 2.5t2 3l1 1q19 16 37 -12l33 -64q6 -12 13 -15.5t13.5 2t10.5 17.5l18 70
q6 19 19.5 21t25.5 -13l48 -53q14 -15 23 -11.5t11 23.5l4 70q3 20 15.5 25t27.5 -7l58 -43q17 -12 25.5 -7t4.5 25l-8 70q-3 20 8.5 28t28.5 -1l64 -29q19 -9 26.5 -1.5t1.5 26.5l-22 67q-8 19 0.5 29t27.5 4l15 -2q40 -77 70 -202.5t30 -217.5q-15 -18 -34.5 -27.5
t-59.5 -9.5h-8q0 46 -33 72q18 -21 18 -55v-15q-32 3 -32 39q0 43 -28 72t-77 29q-41 0 -68.5 -32t-27.5 -79q0 -60 49.5 -96.5t138.5 -36.5q85 0 172 42t156.5 112t125 154.5t86 175.5t30.5 169q0 59 -36.5 98t-94.5 39q-48 0 -85.5 -33.5t-37.5 -84.5q0 -106 119 -119
q-29 -119 -60 -174q-12 96 -43.5 178t-75.5 129q91 -120 107 -330l-29 -41q0 156 -51 287t-131 172q-5 9 2 18.5t22 12.5l70 12q19 3 21 13.5t-15 21.5l-59 39q-15 13 -13.5 26.5t19.5 20.5l64 28q14 4 19.5 11t0 14t-19.5 12l-64 27q-23 10 -20 29q11 6 14 16l35 61
q9 19 20.5 18t16.5 -20l20 -67q6 -21 18.5 -24t26.5 14l47 53q12 15 23 12.5t12 -22.5l4 -72q1 -21 14.5 -26.5t28.5 7.5l57 44q15 12 24 5.5t7 -26.5l-10 -70q-1 -20 10.5 -27.5t28.5 1.5l63 33q19 8 26.5 0t0.5 -29l-23 -64q-6 -20 3 -30t28 -4l70 14q20 6 26.5 -2
t-4.5 -27l-37 -59q-12 -17 -5.5 -29.5t26.5 -11.5l72 4q21 0 25 -11t-9 -24l-49 -53q-14 -13 -10.5 -26.5t24.5 -16.5l70 -12q43 -10 6 -39l-57 -39q-16 -10 -15 -24t21 -21l63 -27q12 -5 16.5 -12t0 -13.5t-16.5 -11.5zM745 336q106 0 212.5 65t183.5 162t125.5 212
t48.5 214q0 63 -41 101q24 -38 24 -84q0 -100 -47.5 -215.5t-126.5 -215.5q-85 -105 -188.5 -168t-212.5 -63q-59 0 -100 18q42 -26 122 -26z" />
    <glyph glyph-name="numbersign" unicode="#" horiz-adv-x="1525" 
d="M1526 752q-20 -7 -21 -22t15 -25l57 -41q11 -7 14.5 -14.5t-2 -13.5t-18.5 -9l-70 -13q-21 -3 -24.5 -16.5t10.5 -28.5l49 -49q13 -14 9 -24.5t-25 -10.5l-72 4q-20 0 -26.5 -11.5t5.5 -28.5l37 -62q10 -17 4 -25.5t-26 -5.5l-70 19q-18 6 -27.5 -5t-3.5 -30l23 -68
q8 -19 0 -26t-27 2l-63 31q-17 9 -28.5 1t-10.5 -30l10 -68q1 -21 -7.5 -25.5t-23.5 7.5l-57 43q-15 12 -28.5 5.5t-14.5 -26.5l-4 -69q-1 -20 -12 -23.5t-23 10.5l-47 56q-13 14 -26 12t-19 -22l-20 -68q-3 -13 -9.5 -18t-14 -1t-13.5 15l-35 61q-9 19 -22 19t-25 -19
l-31 -61q-6 -11 -13.5 -15t-14 1t-9.5 18l-20 68q-6 20 -19 22t-26 -12l-47 -56q-12 -14 -22 -10.5t-13 23.5l-4 69q-2 20 -15 26.5t-30 -5.5l-54 -43q-17 -13 -26.5 -8t-5.5 26l10 68q1 22 -10.5 30t-30.5 -1l-62 -31q-19 -9 -26.5 -2t0.5 26l22 68q8 19 -1.5 30t-28.5 5
l-70 -19q-20 -3 -26.5 5.5t3.5 25.5l39 62q11 17 4.5 28.5t-26.5 11.5l-72 -4q-21 0 -25 10.5t9 24.5l51 49q13 15 9 28.5t-25 16.5l-68 13q-21 4 -23.5 15.5t15.5 21.5l57 41q2 1 3.5 2.5l3 3l2.5 2.5t2 3l1 1q19 16 37 -12l33 -64q6 -12 13 -15.5t13.5 2t10.5 17.5l18 70
q6 19 19.5 21t25.5 -13l48 -53q14 -15 23 -11.5t11 23.5l4 70q3 20 15.5 25t27.5 -7l58 -43q17 -12 25.5 -7t4.5 25l-8 70q-3 20 8.5 28t28.5 -1l64 -29q19 -9 26.5 -1.5t1.5 26.5l-22 67q-8 19 0.5 29t27.5 4l15 -2q40 -77 70 -202.5t30 -217.5q-15 -18 -34.5 -27.5
t-59.5 -9.5h-8q0 46 -33 72q18 -21 18 -55v-15q-32 3 -32 39q0 43 -28 72t-77 29q-41 0 -68.5 -32t-27.5 -79q0 -60 49.5 -96.5t138.5 -36.5q85 0 172 42t156.5 112t125 154.5t86 175.5t30.5 169q0 59 -36.5 98t-94.5 39q-48 0 -85.5 -33.5t-37.5 -84.5q0 -106 119 -119
q-29 -119 -60 -174q-12 96 -43.5 178t-75.5 129q91 -120 107 -330l-29 -41q0 156 -51 287t-131 172q-5 9 2 18.5t22 12.5l70 12q19 3 21 13.5t-15 21.5l-59 39q-15 13 -13.5 26.5t19.5 20.5l64 28q14 4 19.5 11t0 14t-19.5 12l-64 27q-23 10 -20 29q11 6 14 16l35 61
q9 19 20.5 18t16.5 -20l20 -67q6 -21 18.5 -24t26.5 14l47 53q12 15 23 12.5t12 -22.5l4 -72q1 -21 14.5 -26.5t28.5 7.5l57 44q15 12 24 5.5t7 -26.5l-10 -70q-1 -20 10.5 -27.5t28.5 1.5l63 33q19 8 26.5 0t0.5 -29l-23 -64q-6 -20 3 -30t28 -4l70 14q20 6 26.5 -2
t-4.5 -27l-37 -59q-12 -17 -5.5 -29.5t26.5 -11.5l72 4q21 0 25 -11t-9 -24l-49 -53q-14 -13 -10.5 -26.5t24.5 -16.5l70 -12q43 -10 6 -39l-57 -39q-16 -10 -15 -24t21 -21l63 -27q12 -5 16.5 -12t0 -13.5t-16.5 -11.5zM745 336q106 0 212.5 65t183.5 162t125.5 212
t48.5 214q0 63 -41 101q24 -38 24 -84q0 -100 -47.5 -215.5t-126.5 -215.5q-85 -105 -188.5 -168t-212.5 -63q-59 0 -100 18q42 -26 122 -26z" />
    <glyph glyph-name="dollar" unicode="$" horiz-adv-x="1024" 
d="M1526 752q-20 -7 -21 -22t15 -25l57 -41q11 -7 14.5 -14.5t-2 -13.5t-18.5 -9l-70 -13q-21 -3 -24.5 -16.5t10.5 -28.5l49 -49q13 -14 9 -24.5t-25 -10.5l-72 4q-20 0 -26.5 -11.5t5.5 -28.5l37 -62q10 -17 4 -25.5t-26 -5.5l-70 19q-18 6 -27.5 -5t-3.5 -30l23 -68
q8 -19 0 -26t-27 2l-63 31q-17 9 -28.5 1t-10.5 -30l10 -68q1 -21 -7.5 -25.5t-23.5 7.5l-57 43q-15 12 -28.5 5.5t-14.5 -26.5l-4 -69q-1 -20 -12 -23.5t-23 10.5l-47 56q-13 14 -26 12t-19 -22l-20 -68q-3 -13 -9.5 -18t-14 -1t-13.5 15l-35 61q-9 19 -22 19t-25 -19
l-31 -61q-6 -11 -13.5 -15t-14 1t-9.5 18l-20 68q-6 20 -19 22t-26 -12l-47 -56q-12 -14 -22 -10.5t-13 23.5l-4 69q-2 20 -15 26.5t-30 -5.5l-54 -43q-17 -13 -26.5 -8t-5.5 26l10 68q1 22 -10.5 30t-30.5 -1l-62 -31q-19 -9 -26.5 -2t0.5 26l22 68q8 19 -1.5 30t-28.5 5
l-70 -19q-20 -3 -26.5 5.5t3.5 25.5l39 62q11 17 4.5 28.5t-26.5 11.5l-72 -4q-21 0 -25 10.5t9 24.5l51 49q13 15 9 28.5t-25 16.5l-68 13q-21 4 -23.5 15.5t15.5 21.5l57 41q2 1 3.5 2.5l3 3l2.5 2.5t2 3l1 1q19 16 37 -12l33 -64q6 -12 13 -15.5t13.5 2t10.5 17.5l18 70
q6 19 19.5 21t25.5 -13l48 -53q14 -15 23 -11.5t11 23.5l4 70q3 20 15.5 25t27.5 -7l58 -43q17 -12 25.5 -7t4.5 25l-8 70q-3 20 8.5 28t28.5 -1l64 -29q19 -9 26.5 -1.5t1.5 26.5l-22 67q-8 19 0.5 29t27.5 4l15 -2q40 -77 70 -202.5t30 -217.5q-15 -18 -34.5 -27.5
t-59.5 -9.5h-8q0 46 -33 72q18 -21 18 -55v-15q-32 3 -32 39q0 43 -28 72t-77 29q-41 0 -68.5 -32t-27.5 -79q0 -60 49.5 -96.5t138.5 -36.5q85 0 172 42t156.5 112t125 154.5t86 175.5t30.5 169q0 59 -36.5 98t-94.5 39q-48 0 -85.5 -33.5t-37.5 -84.5q0 -106 119 -119
q-29 -119 -60 -174q-12 96 -43.5 178t-75.5 129q91 -120 107 -330l-29 -41q0 156 -51 287t-131 172q-5 9 2 18.5t22 12.5l70 12q19 3 21 13.5t-15 21.5l-59 39q-15 13 -13.5 26.5t19.5 20.5l64 28q14 4 19.5 11t0 14t-19.5 12l-64 27q-23 10 -20 29q11 6 14 16l35 61
q9 19 20.5 18t16.5 -20l20 -67q6 -21 18.5 -24t26.5 14l47 53q12 15 23 12.5t12 -22.5l4 -72q1 -21 14.5 -26.5t28.5 7.5l57 44q15 12 24 5.5t7 -26.5l-10 -70q-1 -20 10.5 -27.5t28.5 1.5l63 33q19 8 26.5 0t0.5 -29l-23 -64q-6 -20 3 -30t28 -4l70 14q20 6 26.5 -2
t-4.5 -27l-37 -59q-12 -17 -5.5 -29.5t26.5 -11.5l72 4q21 0 25 -11t-9 -24l-49 -53q-14 -13 -10.5 -26.5t24.5 -16.5l70 -12q43 -10 6 -39l-57 -39q-16 -10 -15 -24t21 -21l63 -27q12 -5 16.5 -12t0 -13.5t-16.5 -11.5zM745 336q106 0 212.5 65t183.5 162t125.5 212
t48.5 214q0 63 -41 101q24 -38 24 -84q0 -100 -47.5 -215.5t-126.5 -215.5q-85 -105 -188.5 -168t-212.5 -63q-59 0 -100 18q42 -26 122 -26z" />
    <glyph glyph-name="percent" unicode="%" horiz-adv-x="1495" 
d="M1526 752q-20 -7 -21 -22t15 -25l57 -41q11 -7 14.5 -14.5t-2 -13.5t-18.5 -9l-70 -13q-21 -3 -24.5 -16.5t10.5 -28.5l49 -49q13 -14 9 -24.5t-25 -10.5l-72 4q-20 0 -26.5 -11.5t5.5 -28.5l37 -62q10 -17 4 -25.5t-26 -5.5l-70 19q-18 6 -27.5 -5t-3.5 -30l23 -68
q8 -19 0 -26t-27 2l-63 31q-17 9 -28.5 1t-10.5 -30l10 -68q1 -21 -7.5 -25.5t-23.5 7.5l-57 43q-15 12 -28.5 5.5t-14.5 -26.5l-4 -69q-1 -20 -12 -23.5t-23 10.5l-47 56q-13 14 -26 12t-19 -22l-20 -68q-3 -13 -9.5 -18t-14 -1t-13.5 15l-35 61q-9 19 -22 19t-25 -19
l-31 -61q-6 -11 -13.5 -15t-14 1t-9.5 18l-20 68q-6 20 -19 22t-26 -12l-47 -56q-12 -14 -22 -10.5t-13 23.5l-4 69q-2 20 -15 26.5t-30 -5.5l-54 -43q-17 -13 -26.5 -8t-5.5 26l10 68q1 22 -10.5 30t-30.5 -1l-62 -31q-19 -9 -26.5 -2t0.5 26l22 68q8 19 -1.5 30t-28.5 5
l-70 -19q-20 -3 -26.5 5.5t3.5 25.5l39 62q11 17 4.5 28.5t-26.5 11.5l-72 -4q-21 0 -25 10.5t9 24.5l51 49q13 15 9 28.5t-25 16.5l-68 13q-21 4 -23.5 15.5t15.5 21.5l57 41q2 1 3.5 2.5l3 3l2.5 2.5t2 3l1 1q19 16 37 -12l33 -64q6 -12 13 -15.5t13.5 2t10.5 17.5l18 70
q6 19 19.5 21t25.5 -13l48 -53q14 -15 23 -11.5t11 23.5l4 70q3 20 15.5 25t27.5 -7l58 -43q17 -12 25.5 -7t4.5 25l-8 70q-3 20 8.5 28t28.5 -1l64 -29q19 -9 26.5 -1.5t1.5 26.5l-22 67q-8 19 0.5 29t27.5 4l15 -2q40 -77 70 -202.5t30 -217.5q-15 -18 -34.5 -27.5
t-59.5 -9.5h-8q0 46 -33 72q18 -21 18 -55v-15q-32 3 -32 39q0 43 -28 72t-77 29q-41 0 -68.5 -32t-27.5 -79q0 -60 49.5 -96.5t138.5 -36.5q85 0 172 42t156.5 112t125 154.5t86 175.5t30.5 169q0 59 -36.5 98t-94.5 39q-48 0 -85.5 -33.5t-37.5 -84.5q0 -106 119 -119
q-29 -119 -60 -174q-12 96 -43.5 178t-75.5 129q91 -120 107 -330l-29 -41q0 156 -51 287t-131 172q-5 9 2 18.5t22 12.5l70 12q19 3 21 13.5t-15 21.5l-59 39q-15 13 -13.5 26.5t19.5 20.5l64 28q14 4 19.5 11t0 14t-19.5 12l-64 27q-23 10 -20 29q11 6 14 16l35 61
q9 19 20.5 18t16.5 -20l20 -67q6 -21 18.5 -24t26.5 14l47 53q12 15 23 12.5t12 -22.5l4 -72q1 -21 14.5 -26.5t28.5 7.5l57 44q15 12 24 5.5t7 -26.5l-10 -70q-1 -20 10.5 -27.5t28.5 1.5l63 33q19 8 26.5 0t0.5 -29l-23 -64q-6 -20 3 -30t28 -4l70 14q20 6 26.5 -2
t-4.5 -27l-37 -59q-12 -17 -5.5 -29.5t26.5 -11.5l72 4q21 0 25 -11t-9 -24l-49 -53q-14 -13 -10.5 -26.5t24.5 -16.5l70 -12q43 -10 6 -39l-57 -39q-16 -10 -15 -24t21 -21l63 -27q12 -5 16.5 -12t0 -13.5t-16.5 -11.5zM745 336q106 0 212.5 65t183.5 162t125.5 212
t48.5 214q0 63 -41 101q24 -38 24 -84q0 -100 -47.5 -215.5t-126.5 -215.5q-85 -105 -188.5 -168t-212.5 -63q-59 0 -100 18q42 -26 122 -26z" />
    <glyph glyph-name="ampersand" unicode="&#x26;" horiz-adv-x="1482" 
d="M1276 967l201 75q48 -99 55.5 -176t-27.5 -138t-123 -101t-229 -58q-3 -116 -49 -224t-124.5 -190.5t-192 -132t-242.5 -49.5q-119 0 -221.5 41.5t-172.5 112t-109.5 164.5t-39.5 198q0 209 142 359.5t343 161.5q-18 58 -18 118q0 189 132 314t327 125q93 0 167.5 -31
t119 -81.5t67.5 -109.5t23 -120q0 -126 -84.5 -215.5t-206.5 -89.5q-107 0 -162.5 67.5t-40.5 149.5q6 52 44 86t91 34q37 0 67.5 -19.5t45.5 -51.5q18 67 -21.5 114.5t-107.5 47.5q-83 0 -146 -62.5t-63 -159.5q0 -129 104 -217l-139 -204q-7 6 -20.5 15t-55 24.5
t-84.5 15.5q-105 0 -179.5 -77t-74.5 -189q0 -107 71 -184t206 -77q146 0 236.5 91t93.5 215q-96 -20 -128 -56.5t-42 -107.5h-177q7 63 22.5 113t37.5 87.5t55 67t68.5 50t86 37t99 27t115.5 21.5q207 31 252.5 60t7.5 129z" />
    <glyph glyph-name="quotesingle" unicode="'" horiz-adv-x="530" 
d="M1526 752q-20 -7 -21 -22t15 -25l57 -41q11 -7 14.5 -14.5t-2 -13.5t-18.5 -9l-70 -13q-21 -3 -24.5 -16.5t10.5 -28.5l49 -49q13 -14 9 -24.5t-25 -10.5l-72 4q-20 0 -26.5 -11.5t5.5 -28.5l37 -62q10 -17 4 -25.5t-26 -5.5l-70 19q-18 6 -27.5 -5t-3.5 -30l23 -68
q8 -19 0 -26t-27 2l-63 31q-17 9 -28.5 1t-10.5 -30l10 -68q1 -21 -7.5 -25.5t-23.5 7.5l-57 43q-15 12 -28.5 5.5t-14.5 -26.5l-4 -69q-1 -20 -12 -23.5t-23 10.5l-47 56q-13 14 -26 12t-19 -22l-20 -68q-3 -13 -9.5 -18t-14 -1t-13.5 15l-35 61q-9 19 -22 19t-25 -19
l-31 -61q-6 -11 -13.5 -15t-14 1t-9.5 18l-20 68q-6 20 -19 22t-26 -12l-47 -56q-12 -14 -22 -10.5t-13 23.5l-4 69q-2 20 -15 26.5t-30 -5.5l-54 -43q-17 -13 -26.5 -8t-5.5 26l10 68q1 22 -10.5 30t-30.5 -1l-62 -31q-19 -9 -26.5 -2t0.5 26l22 68q8 19 -1.5 30t-28.5 5
l-70 -19q-20 -3 -26.5 5.5t3.5 25.5l39 62q11 17 4.5 28.5t-26.5 11.5l-72 -4q-21 0 -25 10.5t9 24.5l51 49q13 15 9 28.5t-25 16.5l-68 13q-21 4 -23.5 15.5t15.5 21.5l57 41q2 1 3.5 2.5l3 3l2.5 2.5t2 3l1 1q19 16 37 -12l33 -64q6 -12 13 -15.5t13.5 2t10.5 17.5l18 70
q6 19 19.5 21t25.5 -13l48 -53q14 -15 23 -11.5t11 23.5l4 70q3 20 15.5 25t27.5 -7l58 -43q17 -12 25.5 -7t4.5 25l-8 70q-3 20 8.5 28t28.5 -1l64 -29q19 -9 26.5 -1.5t1.5 26.5l-22 67q-8 19 0.5 29t27.5 4l15 -2q40 -77 70 -202.5t30 -217.5q-15 -18 -34.5 -27.5
t-59.5 -9.5h-8q0 46 -33 72q18 -21 18 -55v-15q-32 3 -32 39q0 43 -28 72t-77 29q-41 0 -68.5 -32t-27.5 -79q0 -60 49.5 -96.5t138.5 -36.5q85 0 172 42t156.5 112t125 154.5t86 175.5t30.5 169q0 59 -36.5 98t-94.5 39q-48 0 -85.5 -33.5t-37.5 -84.5q0 -106 119 -119
q-29 -119 -60 -174q-12 96 -43.5 178t-75.5 129q91 -120 107 -330l-29 -41q0 156 -51 287t-131 172q-5 9 2 18.5t22 12.5l70 12q19 3 21 13.5t-15 21.5l-59 39q-15 13 -13.5 26.5t19.5 20.5l64 28q14 4 19.5 11t0 14t-19.5 12l-64 27q-23 10 -20 29q11 6 14 16l35 61
q9 19 20.5 18t16.5 -20l20 -67q6 -21 18.5 -24t26.5 14l47 53q12 15 23 12.5t12 -22.5l4 -72q1 -21 14.5 -26.5t28.5 7.5l57 44q15 12 24 5.5t7 -26.5l-10 -70q-1 -20 10.5 -27.5t28.5 1.5l63 33q19 8 26.5 0t0.5 -29l-23 -64q-6 -20 3 -30t28 -4l70 14q20 6 26.5 -2
t-4.5 -27l-37 -59q-12 -17 -5.5 -29.5t26.5 -11.5l72 4q21 0 25 -11t-9 -24l-49 -53q-14 -13 -10.5 -26.5t24.5 -16.5l70 -12q43 -10 6 -39l-57 -39q-16 -10 -15 -24t21 -21l63 -27q12 -5 16.5 -12t0 -13.5t-16.5 -11.5zM745 336q106 0 212.5 65t183.5 162t125.5 212
t48.5 214q0 63 -41 101q24 -38 24 -84q0 -100 -47.5 -215.5t-126.5 -215.5q-85 -105 -188.5 -168t-212.5 -63q-59 0 -100 18q42 -26 122 -26z" />
    <glyph glyph-name="parenleft" unicode="(" horiz-adv-x="899" 
d="M1526 752q-20 -7 -21 -22t15 -25l57 -41q11 -7 14.5 -14.5t-2 -13.5t-18.5 -9l-70 -13q-21 -3 -24.5 -16.5t10.5 -28.5l49 -49q13 -14 9 -24.5t-25 -10.5l-72 4q-20 0 -26.5 -11.5t5.5 -28.5l37 -62q10 -17 4 -25.5t-26 -5.5l-70 19q-18 6 -27.5 -5t-3.5 -30l23 -68
q8 -19 0 -26t-27 2l-63 31q-17 9 -28.5 1t-10.5 -30l10 -68q1 -21 -7.5 -25.5t-23.5 7.5l-57 43q-15 12 -28.5 5.5t-14.5 -26.5l-4 -69q-1 -20 -12 -23.5t-23 10.5l-47 56q-13 14 -26 12t-19 -22l-20 -68q-3 -13 -9.5 -18t-14 -1t-13.5 15l-35 61q-9 19 -22 19t-25 -19
l-31 -61q-6 -11 -13.5 -15t-14 1t-9.5 18l-20 68q-6 20 -19 22t-26 -12l-47 -56q-12 -14 -22 -10.5t-13 23.5l-4 69q-2 20 -15 26.5t-30 -5.5l-54 -43q-17 -13 -26.5 -8t-5.5 26l10 68q1 22 -10.5 30t-30.5 -1l-62 -31q-19 -9 -26.5 -2t0.5 26l22 68q8 19 -1.5 30t-28.5 5
l-70 -19q-20 -3 -26.5 5.5t3.5 25.5l39 62q11 17 4.5 28.5t-26.5 11.5l-72 -4q-21 0 -25 10.5t9 24.5l51 49q13 15 9 28.5t-25 16.5l-68 13q-21 4 -23.5 15.5t15.5 21.5l57 41q2 1 3.5 2.5l3 3l2.5 2.5t2 3l1 1q19 16 37 -12l33 -64q6 -12 13 -15.5t13.5 2t10.5 17.5l18 70
q6 19 19.5 21t25.5 -13l48 -53q14 -15 23 -11.5t11 23.5l4 70q3 20 15.5 25t27.5 -7l58 -43q17 -12 25.5 -7t4.5 25l-8 70q-3 20 8.5 28t28.5 -1l64 -29q19 -9 26.5 -1.5t1.5 26.5l-22 67q-8 19 0.5 29t27.5 4l15 -2q40 -77 70 -202.5t30 -217.5q-15 -18 -34.5 -27.5
t-59.5 -9.5h-8q0 46 -33 72q18 -21 18 -55v-15q-32 3 -32 39q0 43 -28 72t-77 29q-41 0 -68.5 -32t-27.5 -79q0 -60 49.5 -96.5t138.5 -36.5q85 0 172 42t156.5 112t125 154.5t86 175.5t30.5 169q0 59 -36.5 98t-94.5 39q-48 0 -85.5 -33.5t-37.5 -84.5q0 -106 119 -119
q-29 -119 -60 -174q-12 96 -43.5 178t-75.5 129q91 -120 107 -330l-29 -41q0 156 -51 287t-131 172q-5 9 2 18.5t22 12.5l70 12q19 3 21 13.5t-15 21.5l-59 39q-15 13 -13.5 26.5t19.5 20.5l64 28q14 4 19.5 11t0 14t-19.5 12l-64 27q-23 10 -20 29q11 6 14 16l35 61
q9 19 20.5 18t16.5 -20l20 -67q6 -21 18.5 -24t26.5 14l47 53q12 15 23 12.5t12 -22.5l4 -72q1 -21 14.5 -26.5t28.5 7.5l57 44q15 12 24 5.5t7 -26.5l-10 -70q-1 -20 10.5 -27.5t28.5 1.5l63 33q19 8 26.5 0t0.5 -29l-23 -64q-6 -20 3 -30t28 -4l70 14q20 6 26.5 -2
t-4.5 -27l-37 -59q-12 -17 -5.5 -29.5t26.5 -11.5l72 4q21 0 25 -11t-9 -24l-49 -53q-14 -13 -10.5 -26.5t24.5 -16.5l70 -12q43 -10 6 -39l-57 -39q-16 -10 -15 -24t21 -21l63 -27q12 -5 16.5 -12t0 -13.5t-16.5 -11.5zM745 336q106 0 212.5 65t183.5 162t125.5 212
t48.5 214q0 63 -41 101q24 -38 24 -84q0 -100 -47.5 -215.5t-126.5 -215.5q-85 -105 -188.5 -168t-212.5 -63q-59 0 -100 18q42 -26 122 -26z" />
    <glyph glyph-name="parenright" unicode=")" horiz-adv-x="899" 
d="M1526 752q-20 -7 -21 -22t15 -25l57 -41q11 -7 14.5 -14.5t-2 -13.5t-18.5 -9l-70 -13q-21 -3 -24.5 -16.5t10.5 -28.5l49 -49q13 -14 9 -24.5t-25 -10.5l-72 4q-20 0 -26.5 -11.5t5.5 -28.5l37 -62q10 -17 4 -25.5t-26 -5.5l-70 19q-18 6 -27.5 -5t-3.5 -30l23 -68
q8 -19 0 -26t-27 2l-63 31q-17 9 -28.5 1t-10.5 -30l10 -68q1 -21 -7.5 -25.5t-23.5 7.5l-57 43q-15 12 -28.5 5.5t-14.5 -26.5l-4 -69q-1 -20 -12 -23.5t-23 10.5l-47 56q-13 14 -26 12t-19 -22l-20 -68q-3 -13 -9.5 -18t-14 -1t-13.5 15l-35 61q-9 19 -22 19t-25 -19
l-31 -61q-6 -11 -13.5 -15t-14 1t-9.5 18l-20 68q-6 20 -19 22t-26 -12l-47 -56q-12 -14 -22 -10.5t-13 23.5l-4 69q-2 20 -15 26.5t-30 -5.5l-54 -43q-17 -13 -26.5 -8t-5.5 26l10 68q1 22 -10.5 30t-30.5 -1l-62 -31q-19 -9 -26.5 -2t0.5 26l22 68q8 19 -1.5 30t-28.5 5
l-70 -19q-20 -3 -26.5 5.5t3.5 25.5l39 62q11 17 4.5 28.5t-26.5 11.5l-72 -4q-21 0 -25 10.5t9 24.5l51 49q13 15 9 28.5t-25 16.5l-68 13q-21 4 -23.5 15.5t15.5 21.5l57 41q2 1 3.5 2.5l3 3l2.5 2.5t2 3l1 1q19 16 37 -12l33 -64q6 -12 13 -15.5t13.5 2t10.5 17.5l18 70
q6 19 19.5 21t25.5 -13l48 -53q14 -15 23 -11.5t11 23.5l4 70q3 20 15.5 25t27.5 -7l58 -43q17 -12 25.5 -7t4.5 25l-8 70q-3 20 8.5 28t28.5 -1l64 -29q19 -9 26.5 -1.5t1.5 26.5l-22 67q-8 19 0.5 29t27.5 4l15 -2q40 -77 70 -202.5t30 -217.5q-15 -18 -34.5 -27.5
t-59.5 -9.5h-8q0 46 -33 72q18 -21 18 -55v-15q-32 3 -32 39q0 43 -28 72t-77 29q-41 0 -68.5 -32t-27.5 -79q0 -60 49.5 -96.5t138.5 -36.5q85 0 172 42t156.5 112t125 154.5t86 175.5t30.5 169q0 59 -36.5 98t-94.5 39q-48 0 -85.5 -33.5t-37.5 -84.5q0 -106 119 -119
q-29 -119 -60 -174q-12 96 -43.5 178t-75.5 129q91 -120 107 -330l-29 -41q0 156 -51 287t-131 172q-5 9 2 18.5t22 12.5l70 12q19 3 21 13.5t-15 21.5l-59 39q-15 13 -13.5 26.5t19.5 20.5l64 28q14 4 19.5 11t0 14t-19.5 12l-64 27q-23 10 -20 29q11 6 14 16l35 61
q9 19 20.5 18t16.5 -20l20 -67q6 -21 18.5 -24t26.5 14l47 53q12 15 23 12.5t12 -22.5l4 -72q1 -21 14.5 -26.5t28.5 7.5l57 44q15 12 24 5.5t7 -26.5l-10 -70q-1 -20 10.5 -27.5t28.5 1.5l63 33q19 8 26.5 0t0.5 -29l-23 -64q-6 -20 3 -30t28 -4l70 14q20 6 26.5 -2
t-4.5 -27l-37 -59q-12 -17 -5.5 -29.5t26.5 -11.5l72 4q21 0 25 -11t-9 -24l-49 -53q-14 -13 -10.5 -26.5t24.5 -16.5l70 -12q43 -10 6 -39l-57 -39q-16 -10 -15 -24t21 -21l63 -27q12 -5 16.5 -12t0 -13.5t-16.5 -11.5zM745 336q106 0 212.5 65t183.5 162t125.5 212
t48.5 214q0 63 -41 101q24 -38 24 -84q0 -100 -47.5 -215.5t-126.5 -215.5q-85 -105 -188.5 -168t-212.5 -63q-59 0 -100 18q42 -26 122 -26z" />
    <glyph glyph-name="asterisk" unicode="*" horiz-adv-x="866" 
d="M348 1382q30 -30 82 -122q8 123 19 145q23 56 75.5 80t104.5 2q54 -22 76 -75t0 -109q-10 -23 -91 -119q102 30 144 30q60 -3 99 -45.5t34 -99.5q-4 -58 -48.5 -96t-103.5 -33q-39 4 -141 49q61 -92 74 -127q15 -58 -14 -108t-85 -64q-55 -13 -103.5 17.5t-63.5 87.5
q-6 18 2 147q-72 -95 -99 -108q-50 -32 -106.5 -20t-87.5 60q-29 49 -15.5 105t64.5 90q35 17 141 41q-119 45 -133 59q-45 39 -51.5 97t29.5 102q37 43 95.5 47t102.5 -33z" />
    <glyph glyph-name="plus" unicode="+" horiz-adv-x="1234" 
d="M1526 752q-20 -7 -21 -22t15 -25l57 -41q11 -7 14.5 -14.5t-2 -13.5t-18.5 -9l-70 -13q-21 -3 -24.5 -16.5t10.5 -28.5l49 -49q13 -14 9 -24.5t-25 -10.5l-72 4q-20 0 -26.5 -11.5t5.5 -28.5l37 -62q10 -17 4 -25.5t-26 -5.5l-70 19q-18 6 -27.5 -5t-3.5 -30l23 -68
q8 -19 0 -26t-27 2l-63 31q-17 9 -28.5 1t-10.5 -30l10 -68q1 -21 -7.5 -25.5t-23.5 7.5l-57 43q-15 12 -28.5 5.5t-14.5 -26.5l-4 -69q-1 -20 -12 -23.5t-23 10.5l-47 56q-13 14 -26 12t-19 -22l-20 -68q-3 -13 -9.5 -18t-14 -1t-13.5 15l-35 61q-9 19 -22 19t-25 -19
l-31 -61q-6 -11 -13.5 -15t-14 1t-9.5 18l-20 68q-6 20 -19 22t-26 -12l-47 -56q-12 -14 -22 -10.5t-13 23.5l-4 69q-2 20 -15 26.5t-30 -5.5l-54 -43q-17 -13 -26.5 -8t-5.5 26l10 68q1 22 -10.5 30t-30.5 -1l-62 -31q-19 -9 -26.5 -2t0.5 26l22 68q8 19 -1.5 30t-28.5 5
l-70 -19q-20 -3 -26.5 5.5t3.5 25.5l39 62q11 17 4.5 28.5t-26.5 11.5l-72 -4q-21 0 -25 10.5t9 24.5l51 49q13 15 9 28.5t-25 16.5l-68 13q-21 4 -23.5 15.5t15.5 21.5l57 41q2 1 3.5 2.5l3 3l2.5 2.5t2 3l1 1q19 16 37 -12l33 -64q6 -12 13 -15.5t13.5 2t10.5 17.5l18 70
q6 19 19.5 21t25.5 -13l48 -53q14 -15 23 -11.5t11 23.5l4 70q3 20 15.5 25t27.5 -7l58 -43q17 -12 25.5 -7t4.5 25l-8 70q-3 20 8.5 28t28.5 -1l64 -29q19 -9 26.5 -1.5t1.5 26.5l-22 67q-8 19 0.5 29t27.5 4l15 -2q40 -77 70 -202.5t30 -217.5q-15 -18 -34.5 -27.5
t-59.5 -9.5h-8q0 46 -33 72q18 -21 18 -55v-15q-32 3 -32 39q0 43 -28 72t-77 29q-41 0 -68.5 -32t-27.5 -79q0 -60 49.5 -96.5t138.5 -36.5q85 0 172 42t156.5 112t125 154.5t86 175.5t30.5 169q0 59 -36.5 98t-94.5 39q-48 0 -85.5 -33.5t-37.5 -84.5q0 -106 119 -119
q-29 -119 -60 -174q-12 96 -43.5 178t-75.5 129q91 -120 107 -330l-29 -41q0 156 -51 287t-131 172q-5 9 2 18.5t22 12.5l70 12q19 3 21 13.5t-15 21.5l-59 39q-15 13 -13.5 26.5t19.5 20.5l64 28q14 4 19.5 11t0 14t-19.5 12l-64 27q-23 10 -20 29q11 6 14 16l35 61
q9 19 20.5 18t16.5 -20l20 -67q6 -21 18.5 -24t26.5 14l47 53q12 15 23 12.5t12 -22.5l4 -72q1 -21 14.5 -26.5t28.5 7.5l57 44q15 12 24 5.5t7 -26.5l-10 -70q-1 -20 10.5 -27.5t28.5 1.5l63 33q19 8 26.5 0t0.5 -29l-23 -64q-6 -20 3 -30t28 -4l70 14q20 6 26.5 -2
t-4.5 -27l-37 -59q-12 -17 -5.5 -29.5t26.5 -11.5l72 4q21 0 25 -11t-9 -24l-49 -53q-14 -13 -10.5 -26.5t24.5 -16.5l70 -12q43 -10 6 -39l-57 -39q-16 -10 -15 -24t21 -21l63 -27q12 -5 16.5 -12t0 -13.5t-16.5 -11.5zM745 336q106 0 212.5 65t183.5 162t125.5 212
t48.5 214q0 63 -41 101q24 -38 24 -84q0 -100 -47.5 -215.5t-126.5 -215.5q-85 -105 -188.5 -168t-212.5 -63q-59 0 -100 18q42 -26 122 -26z" />
    <glyph glyph-name="comma" unicode="," horiz-adv-x="706" 
d="M551 166q0 -72 -31 -147.5t-77.5 -136.5t-107.5 -119.5t-115 -98t-105 -70.5l-82 132q66 50 114.5 94.5t72.5 77t35 53t15 35.5q-62 22 -100.5 75t-38.5 121q0 88 60.5 148.5t148.5 60.5q52 0 98.5 -22t79.5 -74.5t33 -128.5z" />
    <glyph glyph-name="hyphen" unicode="-" horiz-adv-x="1075" 
d="M1526 752q-20 -7 -21 -22t15 -25l57 -41q11 -7 14.5 -14.5t-2 -13.5t-18.5 -9l-70 -13q-21 -3 -24.5 -16.5t10.5 -28.5l49 -49q13 -14 9 -24.5t-25 -10.5l-72 4q-20 0 -26.5 -11.5t5.5 -28.5l37 -62q10 -17 4 -25.5t-26 -5.5l-70 19q-18 6 -27.5 -5t-3.5 -30l23 -68
q8 -19 0 -26t-27 2l-63 31q-17 9 -28.5 1t-10.5 -30l10 -68q1 -21 -7.5 -25.5t-23.5 7.5l-57 43q-15 12 -28.5 5.5t-14.5 -26.5l-4 -69q-1 -20 -12 -23.5t-23 10.5l-47 56q-13 14 -26 12t-19 -22l-20 -68q-3 -13 -9.5 -18t-14 -1t-13.5 15l-35 61q-9 19 -22 19t-25 -19
l-31 -61q-6 -11 -13.5 -15t-14 1t-9.5 18l-20 68q-6 20 -19 22t-26 -12l-47 -56q-12 -14 -22 -10.5t-13 23.5l-4 69q-2 20 -15 26.5t-30 -5.5l-54 -43q-17 -13 -26.5 -8t-5.5 26l10 68q1 22 -10.5 30t-30.5 -1l-62 -31q-19 -9 -26.5 -2t0.5 26l22 68q8 19 -1.5 30t-28.5 5
l-70 -19q-20 -3 -26.5 5.5t3.5 25.5l39 62q11 17 4.5 28.5t-26.5 11.5l-72 -4q-21 0 -25 10.5t9 24.5l51 49q13 15 9 28.5t-25 16.5l-68 13q-21 4 -23.5 15.5t15.5 21.5l57 41q2 1 3.5 2.5l3 3l2.5 2.5t2 3l1 1q19 16 37 -12l33 -64q6 -12 13 -15.5t13.5 2t10.5 17.5l18 70
q6 19 19.5 21t25.5 -13l48 -53q14 -15 23 -11.5t11 23.5l4 70q3 20 15.5 25t27.5 -7l58 -43q17 -12 25.5 -7t4.5 25l-8 70q-3 20 8.5 28t28.5 -1l64 -29q19 -9 26.5 -1.5t1.5 26.5l-22 67q-8 19 0.5 29t27.5 4l15 -2q40 -77 70 -202.5t30 -217.5q-15 -18 -34.5 -27.5
t-59.5 -9.5h-8q0 46 -33 72q18 -21 18 -55v-15q-32 3 -32 39q0 43 -28 72t-77 29q-41 0 -68.5 -32t-27.5 -79q0 -60 49.5 -96.5t138.5 -36.5q85 0 172 42t156.5 112t125 154.5t86 175.5t30.5 169q0 59 -36.5 98t-94.5 39q-48 0 -85.5 -33.5t-37.5 -84.5q0 -106 119 -119
q-29 -119 -60 -174q-12 96 -43.5 178t-75.5 129q91 -120 107 -330l-29 -41q0 156 -51 287t-131 172q-5 9 2 18.5t22 12.5l70 12q19 3 21 13.5t-15 21.5l-59 39q-15 13 -13.5 26.5t19.5 20.5l64 28q14 4 19.5 11t0 14t-19.5 12l-64 27q-23 10 -20 29q11 6 14 16l35 61
q9 19 20.5 18t16.5 -20l20 -67q6 -21 18.5 -24t26.5 14l47 53q12 15 23 12.5t12 -22.5l4 -72q1 -21 14.5 -26.5t28.5 7.5l57 44q15 12 24 5.5t7 -26.5l-10 -70q-1 -20 10.5 -27.5t28.5 1.5l63 33q19 8 26.5 0t0.5 -29l-23 -64q-6 -20 3 -30t28 -4l70 14q20 6 26.5 -2
t-4.5 -27l-37 -59q-12 -17 -5.5 -29.5t26.5 -11.5l72 4q21 0 25 -11t-9 -24l-49 -53q-14 -13 -10.5 -26.5t24.5 -16.5l70 -12q43 -10 6 -39l-57 -39q-16 -10 -15 -24t21 -21l63 -27q12 -5 16.5 -12t0 -13.5t-16.5 -11.5zM745 336q106 0 212.5 65t183.5 162t125.5 212
t48.5 214q0 63 -41 101q24 -38 24 -84q0 -100 -47.5 -215.5t-126.5 -215.5q-85 -105 -188.5 -168t-212.5 -63q-59 0 -100 18q42 -26 122 -26z" />
    <glyph glyph-name="period" unicode="." horiz-adv-x="706" 
d="M340 -27q-88 0 -148.5 60.5t-60.5 148.5t60.5 148.5t148.5 60.5t149.5 -60.5t61.5 -148.5t-61.5 -148.5t-149.5 -60.5z" />
    <glyph glyph-name="slash" unicode="/" horiz-adv-x="948" 
d="M1526 752q-20 -7 -21 -22t15 -25l57 -41q11 -7 14.5 -14.5t-2 -13.5t-18.5 -9l-70 -13q-21 -3 -24.5 -16.5t10.5 -28.5l49 -49q13 -14 9 -24.5t-25 -10.5l-72 4q-20 0 -26.5 -11.5t5.5 -28.5l37 -62q10 -17 4 -25.5t-26 -5.5l-70 19q-18 6 -27.5 -5t-3.5 -30l23 -68
q8 -19 0 -26t-27 2l-63 31q-17 9 -28.5 1t-10.5 -30l10 -68q1 -21 -7.5 -25.5t-23.5 7.5l-57 43q-15 12 -28.5 5.5t-14.5 -26.5l-4 -69q-1 -20 -12 -23.5t-23 10.5l-47 56q-13 14 -26 12t-19 -22l-20 -68q-3 -13 -9.5 -18t-14 -1t-13.5 15l-35 61q-9 19 -22 19t-25 -19
l-31 -61q-6 -11 -13.5 -15t-14 1t-9.5 18l-20 68q-6 20 -19 22t-26 -12l-47 -56q-12 -14 -22 -10.5t-13 23.5l-4 69q-2 20 -15 26.5t-30 -5.5l-54 -43q-17 -13 -26.5 -8t-5.5 26l10 68q1 22 -10.5 30t-30.5 -1l-62 -31q-19 -9 -26.5 -2t0.5 26l22 68q8 19 -1.5 30t-28.5 5
l-70 -19q-20 -3 -26.5 5.5t3.5 25.5l39 62q11 17 4.5 28.5t-26.5 11.5l-72 -4q-21 0 -25 10.5t9 24.5l51 49q13 15 9 28.5t-25 16.5l-68 13q-21 4 -23.5 15.5t15.5 21.5l57 41q2 1 3.5 2.5l3 3l2.5 2.5t2 3l1 1q19 16 37 -12l33 -64q6 -12 13 -15.5t13.5 2t10.5 17.5l18 70
q6 19 19.5 21t25.5 -13l48 -53q14 -15 23 -11.5t11 23.5l4 70q3 20 15.5 25t27.5 -7l58 -43q17 -12 25.5 -7t4.5 25l-8 70q-3 20 8.5 28t28.5 -1l64 -29q19 -9 26.5 -1.5t1.5 26.5l-22 67q-8 19 0.5 29t27.5 4l15 -2q40 -77 70 -202.5t30 -217.5q-15 -18 -34.5 -27.5
t-59.5 -9.5h-8q0 46 -33 72q18 -21 18 -55v-15q-32 3 -32 39q0 43 -28 72t-77 29q-41 0 -68.5 -32t-27.5 -79q0 -60 49.5 -96.5t138.5 -36.5q85 0 172 42t156.5 112t125 154.5t86 175.5t30.5 169q0 59 -36.5 98t-94.5 39q-48 0 -85.5 -33.5t-37.5 -84.5q0 -106 119 -119
q-29 -119 -60 -174q-12 96 -43.5 178t-75.5 129q91 -120 107 -330l-29 -41q0 156 -51 287t-131 172q-5 9 2 18.5t22 12.5l70 12q19 3 21 13.5t-15 21.5l-59 39q-15 13 -13.5 26.5t19.5 20.5l64 28q14 4 19.5 11t0 14t-19.5 12l-64 27q-23 10 -20 29q11 6 14 16l35 61
q9 19 20.5 18t16.5 -20l20 -67q6 -21 18.5 -24t26.5 14l47 53q12 15 23 12.5t12 -22.5l4 -72q1 -21 14.5 -26.5t28.5 7.5l57 44q15 12 24 5.5t7 -26.5l-10 -70q-1 -20 10.5 -27.5t28.5 1.5l63 33q19 8 26.5 0t0.5 -29l-23 -64q-6 -20 3 -30t28 -4l70 14q20 6 26.5 -2
t-4.5 -27l-37 -59q-12 -17 -5.5 -29.5t26.5 -11.5l72 4q21 0 25 -11t-9 -24l-49 -53q-14 -13 -10.5 -26.5t24.5 -16.5l70 -12q43 -10 6 -39l-57 -39q-16 -10 -15 -24t21 -21l63 -27q12 -5 16.5 -12t0 -13.5t-16.5 -11.5zM745 336q106 0 212.5 65t183.5 162t125.5 212
t48.5 214q0 63 -41 101q24 -38 24 -84q0 -100 -47.5 -215.5t-126.5 -215.5q-85 -105 -188.5 -168t-212.5 -63q-59 0 -100 18q42 -26 122 -26z" />
    <glyph glyph-name="zero" unicode="0" horiz-adv-x="1124" 
d="M772 1495q172 0 260 -108.5t88 -276.5q0 -61 -12 -140.5t-35 -171.5t-60 -188t-83 -188t-108.5 -173.5t-132.5 -143t-158 -97t-183 -35.5q-172 0 -260 107t-88 278q0 72 15 166t47 202.5t77 216.5t110 208t141 176t175 122t207 46zM367 205q66 0 152 115t155 269
t117.5 312.5t48.5 243.5q0 56 -22 87.5t-58 31.5q-68 0 -155 -114.5t-156.5 -269.5t-117.5 -313t-48 -243q0 -67 26.5 -93t57.5 -26z" />
    <glyph glyph-name="one" unicode="1" horiz-adv-x="907" 
d="M1028 1468l-592 -1468h-317l348 862q-200 -213 -305 -313l-125 141q120 113 234 234.5t190 214.5t135.5 170t87.5 118l27 41h317z" />
    <glyph glyph-name="two" unicode="2" horiz-adv-x="1150" 
d="M1188 1149q0 -338 -547 -723l-186 -129h471l-119 -297h-950l125 309q276 158 512 340q358 277 358 471q0 54 -27.5 90.5t-79.5 36.5q-94 0 -159.5 -105.5t-65.5 -238.5h-317q0 71 16 145.5t57.5 156t103.5 145t164 104.5t230 41q109 0 191 -29t129.5 -78.5t70.5 -109.5
t23 -129z" />
    <glyph glyph-name="three" unicode="3" horiz-adv-x="1146" 
d="M1169 1169q0 -116 -85.5 -222t-258.5 -161q152 -73 152 -260q0 -72 -21 -146.5t-68 -148t-114.5 -130.5t-169 -92.5t-221.5 -35.5q-114 0 -198 31t-128.5 82.5t-67.5 115.5t-20.5 133.5t18 132.5t42.5 116h329q-29 -46 -48.5 -105t-24.5 -118.5t26 -99.5t99 -40
q60 0 111.5 31.5t83 78.5t49.5 98.5t18 94.5q0 169 -289 142h-4l96 237q74 0 134 12t98.5 29.5t67 42.5t42.5 47.5t23 47t10.5 37.5t1.5 24t-3 24t-12.5 33.5t-34 33.5t-61.5 13q-87 0 -138 -71.5t-68 -180.5h-316q10 67 31.5 130.5t65.5 132.5t105 120t155.5 84t209.5 33
q78 0 141 -16t102 -39t67.5 -57.5t42 -62.5t21 -63.5t8.5 -52t1 -35.5z" />
    <glyph glyph-name="four" unicode="4" horiz-adv-x="1202" 
d="M471 360h-541l115 281l752 827h438l-332 -821q38 4 69.5 16t43.5 21l12 10l129 -139q-4 -8 -13 -21t-41.5 -46.5t-71.5 -59.5t-104.5 -47t-138.5 -21l-145 -360h-317zM311 641h273l217 539z" />
    <glyph glyph-name="five" unicode="5" horiz-adv-x="1169" 
d="M891 1114q-27 0 -99.5 8t-131.5 16l-58 9l-74 -184q11 8 30 19.5t75.5 30.5t111.5 19q79 0 139 -31t94.5 -82.5t51.5 -112t17 -126.5q0 -53 -10.5 -114t-34.5 -130t-59.5 -134t-89.5 -125.5t-119.5 -105t-155 -71.5t-191.5 -27q-91 0 -161.5 20t-115.5 54.5t-74 82
t-40 99.5t-10 109.5t13 111.5t32 105h331q-42 -88 -51 -166t18 -125t85 -47q76 0 150 80.5t117.5 191.5t43.5 205q0 127 -90 127q-52 0 -110 -44.5t-107 -137.5l-291 72l309 757q452 -75 518 -75q108 0 203 75l129 -147q-24 -34 -42.5 -56.5t-54.5 -53.5t-74.5 -50t-97 -33
t-126.5 -14z" />
    <glyph glyph-name="six" unicode="6" horiz-adv-x="1148" 
d="M401 -27q-23 0 -46.5 2t-63.5 11t-74 24t-72 45t-64 70.5t-43.5 103.5t-17.5 140q0 78 16.5 175t50 205t81 213.5t115 202t145 170t177 117t206.5 43.5q201 0 294.5 -136t33.5 -362h-328q16 35 27 75t15 82t-13 69.5t-56 27.5q-76 0 -150 -97.5t-159 -276.5
q112 79 248 79q145 0 217 -85t72 -224q0 -112 -46.5 -231t-125.5 -217.5t-195.5 -162t-243.5 -63.5zM608 743q-56 0 -122 -43.5t-119 -109.5q-52 -158 -52 -250q0 -123 88 -123q69 0 141 73.5t115 170t43 168.5q0 52 -24.5 83t-69.5 31z" />
    <glyph glyph-name="seven" unicode="7" horiz-adv-x="1011" 
d="M1090 1468l118 -135q-3 -4 -59.5 -81t-78.5 -107.5t-83.5 -117t-97.5 -142.5t-97 -148.5t-106 -171.5t-99 -174.5t-102.5 -194t-91.5 -196.5h-370q25 62 58.5 128.5t65.5 124t79 130t79.5 122t89 125.5t86 115.5t91 117t84 105t85 104t74.5 91.5q-48 -6 -74 -6
q-23 0 -225 23l-98 -248h-318l215 536q506 -75 572 -75q108 0 203 75z" />
    <glyph glyph-name="eight" unicode="8" horiz-adv-x="1161" 
d="M819 1495q87 0 156 -17.5t113 -46t73 -68.5t41 -82.5t12 -90.5q0 -86 -36 -168t-110.5 -151t-176.5 -103q117 -78 117 -246q0 -71 -20 -144.5t-67 -147t-115 -130t-173.5 -92t-233.5 -35.5q-95 0 -174 19.5t-141.5 60t-97.5 110t-35 161.5q0 107 44.5 205.5t138 177
t220.5 108.5q-3 2 -10 7.5t-20.5 22.5t-24 38.5t-19 58t-8.5 78.5q0 63 17.5 126t59 127t102 112.5t156 79t212.5 30.5zM414 215q72 0 135 49.5t97 119.5t34 136q0 65 -36 99t-95 34q-73 0 -137 -50.5t-98.5 -121.5t-34.5 -137q0 -67 40 -98t95 -31zM698 920
q72 0 129.5 76.5t57.5 154.5q0 48 -24.5 74t-65.5 26q-72 0 -129.5 -76t-57.5 -155q0 -49 25.5 -74.5t64.5 -25.5z" />
    <glyph glyph-name="nine" unicode="9" horiz-adv-x="1099" 
d="M414 512q-145 0 -218 85.5t-73 223.5q1 89 30 184t85 182t129 156t169 110.5t199 41.5q23 0 46.5 -2t63 -10.5t73.5 -24t71.5 -45t64 -70t43.5 -103.5t17 -140q0 -92 -23 -208t-66 -243t-111.5 -247t-153 -216t-198 -154.5t-238.5 -58.5q-101 0 -179 40t-119 108.5
t-51.5 158.5t23.5 191h328q-14 -27 -25.5 -66t-17.5 -83t11.5 -74.5t59.5 -30.5q131 0 305 373q-120 -78 -245 -78zM733 1251q-71 0 -143 -73t-115 -169t-43 -169q0 -52 25.5 -83.5t70.5 -31.5q54 0 121.5 44t120.5 108q51 168 51 251q0 123 -88 123z" />
    <glyph glyph-name="colon" unicode=":" horiz-adv-x="735" 
d="M557 512q-88 0 -148.5 59.5t-60.5 147.5t60.5 149.5t148.5 61.5t148.5 -61.5t60.5 -149.5t-60.5 -147.5t-148.5 -59.5zM340 -27q-88 0 -148.5 60.5t-60.5 148.5t60.5 148.5t148.5 60.5t149.5 -60.5t61.5 -148.5t-61.5 -148.5t-149.5 -60.5z" />
    <glyph glyph-name="semicolon" unicode=";" horiz-adv-x="735" 
d="M557 512q-88 0 -148.5 59.5t-60.5 147.5t60.5 149.5t148.5 61.5t148.5 -61.5t60.5 -149.5t-60.5 -147.5t-148.5 -59.5zM551 180q0 -80 -31.5 -160t-77 -140.5t-109 -119.5t-113 -95.5t-103.5 -70.5l-84 132q87 65 143 123t72.5 86.5t21.5 50.5q-62 22 -100.5 75
t-38.5 121q0 88 60.5 148.5t148.5 60.5q87 0 149 -60.5t62 -150.5z" />
    <glyph glyph-name="less" unicode="&#x3c;" horiz-adv-x="1337" 
d="M1526 752q-20 -7 -21 -22t15 -25l57 -41q11 -7 14.5 -14.5t-2 -13.5t-18.5 -9l-70 -13q-21 -3 -24.5 -16.5t10.5 -28.5l49 -49q13 -14 9 -24.5t-25 -10.5l-72 4q-20 0 -26.5 -11.5t5.5 -28.5l37 -62q10 -17 4 -25.5t-26 -5.5l-70 19q-18 6 -27.5 -5t-3.5 -30l23 -68
q8 -19 0 -26t-27 2l-63 31q-17 9 -28.5 1t-10.5 -30l10 -68q1 -21 -7.5 -25.5t-23.5 7.5l-57 43q-15 12 -28.5 5.5t-14.5 -26.5l-4 -69q-1 -20 -12 -23.5t-23 10.5l-47 56q-13 14 -26 12t-19 -22l-20 -68q-3 -13 -9.5 -18t-14 -1t-13.5 15l-35 61q-9 19 -22 19t-25 -19
l-31 -61q-6 -11 -13.5 -15t-14 1t-9.5 18l-20 68q-6 20 -19 22t-26 -12l-47 -56q-12 -14 -22 -10.5t-13 23.5l-4 69q-2 20 -15 26.5t-30 -5.5l-54 -43q-17 -13 -26.5 -8t-5.5 26l10 68q1 22 -10.5 30t-30.5 -1l-62 -31q-19 -9 -26.5 -2t0.5 26l22 68q8 19 -1.5 30t-28.5 5
l-70 -19q-20 -3 -26.5 5.5t3.5 25.5l39 62q11 17 4.5 28.5t-26.5 11.5l-72 -4q-21 0 -25 10.5t9 24.5l51 49q13 15 9 28.5t-25 16.5l-68 13q-21 4 -23.5 15.5t15.5 21.5l57 41q2 1 3.5 2.5l3 3l2.5 2.5t2 3l1 1q19 16 37 -12l33 -64q6 -12 13 -15.5t13.5 2t10.5 17.5l18 70
q6 19 19.5 21t25.5 -13l48 -53q14 -15 23 -11.5t11 23.5l4 70q3 20 15.5 25t27.5 -7l58 -43q17 -12 25.5 -7t4.5 25l-8 70q-3 20 8.5 28t28.5 -1l64 -29q19 -9 26.5 -1.5t1.5 26.5l-22 67q-8 19 0.5 29t27.5 4l15 -2q40 -77 70 -202.5t30 -217.5q-15 -18 -34.5 -27.5
t-59.5 -9.5h-8q0 46 -33 72q18 -21 18 -55v-15q-32 3 -32 39q0 43 -28 72t-77 29q-41 0 -68.5 -32t-27.5 -79q0 -60 49.5 -96.5t138.5 -36.5q85 0 172 42t156.5 112t125 154.5t86 175.5t30.5 169q0 59 -36.5 98t-94.5 39q-48 0 -85.5 -33.5t-37.5 -84.5q0 -106 119 -119
q-29 -119 -60 -174q-12 96 -43.5 178t-75.5 129q91 -120 107 -330l-29 -41q0 156 -51 287t-131 172q-5 9 2 18.5t22 12.5l70 12q19 3 21 13.5t-15 21.5l-59 39q-15 13 -13.5 26.5t19.5 20.5l64 28q14 4 19.5 11t0 14t-19.5 12l-64 27q-23 10 -20 29q11 6 14 16l35 61
q9 19 20.5 18t16.5 -20l20 -67q6 -21 18.5 -24t26.5 14l47 53q12 15 23 12.5t12 -22.5l4 -72q1 -21 14.5 -26.5t28.5 7.5l57 44q15 12 24 5.5t7 -26.5l-10 -70q-1 -20 10.5 -27.5t28.5 1.5l63 33q19 8 26.5 0t0.5 -29l-23 -64q-6 -20 3 -30t28 -4l70 14q20 6 26.5 -2
t-4.5 -27l-37 -59q-12 -17 -5.5 -29.5t26.5 -11.5l72 4q21 0 25 -11t-9 -24l-49 -53q-14 -13 -10.5 -26.5t24.5 -16.5l70 -12q43 -10 6 -39l-57 -39q-16 -10 -15 -24t21 -21l63 -27q12 -5 16.5 -12t0 -13.5t-16.5 -11.5zM745 336q106 0 212.5 65t183.5 162t125.5 212
t48.5 214q0 63 -41 101q24 -38 24 -84q0 -100 -47.5 -215.5t-126.5 -215.5q-85 -105 -188.5 -168t-212.5 -63q-59 0 -100 18q42 -26 122 -26z" />
    <glyph glyph-name="equal" unicode="=" horiz-adv-x="1271" 
d="M1526 752q-20 -7 -21 -22t15 -25l57 -41q11 -7 14.5 -14.5t-2 -13.5t-18.5 -9l-70 -13q-21 -3 -24.5 -16.5t10.5 -28.5l49 -49q13 -14 9 -24.5t-25 -10.5l-72 4q-20 0 -26.5 -11.5t5.5 -28.5l37 -62q10 -17 4 -25.5t-26 -5.5l-70 19q-18 6 -27.5 -5t-3.5 -30l23 -68
q8 -19 0 -26t-27 2l-63 31q-17 9 -28.5 1t-10.5 -30l10 -68q1 -21 -7.5 -25.5t-23.5 7.5l-57 43q-15 12 -28.5 5.5t-14.5 -26.5l-4 -69q-1 -20 -12 -23.5t-23 10.5l-47 56q-13 14 -26 12t-19 -22l-20 -68q-3 -13 -9.5 -18t-14 -1t-13.5 15l-35 61q-9 19 -22 19t-25 -19
l-31 -61q-6 -11 -13.5 -15t-14 1t-9.5 18l-20 68q-6 20 -19 22t-26 -12l-47 -56q-12 -14 -22 -10.5t-13 23.5l-4 69q-2 20 -15 26.5t-30 -5.5l-54 -43q-17 -13 -26.5 -8t-5.5 26l10 68q1 22 -10.5 30t-30.5 -1l-62 -31q-19 -9 -26.5 -2t0.5 26l22 68q8 19 -1.5 30t-28.5 5
l-70 -19q-20 -3 -26.5 5.5t3.5 25.5l39 62q11 17 4.5 28.5t-26.5 11.5l-72 -4q-21 0 -25 10.5t9 24.5l51 49q13 15 9 28.5t-25 16.5l-68 13q-21 4 -23.5 15.5t15.5 21.5l57 41q2 1 3.5 2.5l3 3l2.5 2.5t2 3l1 1q19 16 37 -12l33 -64q6 -12 13 -15.5t13.5 2t10.5 17.5l18 70
q6 19 19.5 21t25.5 -13l48 -53q14 -15 23 -11.5t11 23.5l4 70q3 20 15.5 25t27.5 -7l58 -43q17 -12 25.5 -7t4.5 25l-8 70q-3 20 8.5 28t28.5 -1l64 -29q19 -9 26.5 -1.5t1.5 26.5l-22 67q-8 19 0.5 29t27.5 4l15 -2q40 -77 70 -202.5t30 -217.5q-15 -18 -34.5 -27.5
t-59.5 -9.5h-8q0 46 -33 72q18 -21 18 -55v-15q-32 3 -32 39q0 43 -28 72t-77 29q-41 0 -68.5 -32t-27.5 -79q0 -60 49.5 -96.5t138.5 -36.5q85 0 172 42t156.5 112t125 154.5t86 175.5t30.5 169q0 59 -36.5 98t-94.5 39q-48 0 -85.5 -33.5t-37.5 -84.5q0 -106 119 -119
q-29 -119 -60 -174q-12 96 -43.5 178t-75.5 129q91 -120 107 -330l-29 -41q0 156 -51 287t-131 172q-5 9 2 18.5t22 12.5l70 12q19 3 21 13.5t-15 21.5l-59 39q-15 13 -13.5 26.5t19.5 20.5l64 28q14 4 19.5 11t0 14t-19.5 12l-64 27q-23 10 -20 29q11 6 14 16l35 61
q9 19 20.5 18t16.5 -20l20 -67q6 -21 18.5 -24t26.5 14l47 53q12 15 23 12.5t12 -22.5l4 -72q1 -21 14.5 -26.5t28.5 7.5l57 44q15 12 24 5.5t7 -26.5l-10 -70q-1 -20 10.5 -27.5t28.5 1.5l63 33q19 8 26.5 0t0.5 -29l-23 -64q-6 -20 3 -30t28 -4l70 14q20 6 26.5 -2
t-4.5 -27l-37 -59q-12 -17 -5.5 -29.5t26.5 -11.5l72 4q21 0 25 -11t-9 -24l-49 -53q-14 -13 -10.5 -26.5t24.5 -16.5l70 -12q43 -10 6 -39l-57 -39q-16 -10 -15 -24t21 -21l63 -27q12 -5 16.5 -12t0 -13.5t-16.5 -11.5zM745 336q106 0 212.5 65t183.5 162t125.5 212
t48.5 214q0 63 -41 101q24 -38 24 -84q0 -100 -47.5 -215.5t-126.5 -215.5q-85 -105 -188.5 -168t-212.5 -63q-59 0 -100 18q42 -26 122 -26z" />
    <glyph glyph-name="greater" unicode="&#x3e;" horiz-adv-x="1325" 
d="M1526 752q-20 -7 -21 -22t15 -25l57 -41q11 -7 14.5 -14.5t-2 -13.5t-18.5 -9l-70 -13q-21 -3 -24.5 -16.5t10.5 -28.5l49 -49q13 -14 9 -24.5t-25 -10.5l-72 4q-20 0 -26.5 -11.5t5.5 -28.5l37 -62q10 -17 4 -25.5t-26 -5.5l-70 19q-18 6 -27.5 -5t-3.5 -30l23 -68
q8 -19 0 -26t-27 2l-63 31q-17 9 -28.5 1t-10.5 -30l10 -68q1 -21 -7.5 -25.5t-23.5 7.5l-57 43q-15 12 -28.5 5.5t-14.5 -26.5l-4 -69q-1 -20 -12 -23.5t-23 10.5l-47 56q-13 14 -26 12t-19 -22l-20 -68q-3 -13 -9.5 -18t-14 -1t-13.5 15l-35 61q-9 19 -22 19t-25 -19
l-31 -61q-6 -11 -13.5 -15t-14 1t-9.5 18l-20 68q-6 20 -19 22t-26 -12l-47 -56q-12 -14 -22 -10.5t-13 23.5l-4 69q-2 20 -15 26.5t-30 -5.5l-54 -43q-17 -13 -26.5 -8t-5.5 26l10 68q1 22 -10.5 30t-30.5 -1l-62 -31q-19 -9 -26.5 -2t0.5 26l22 68q8 19 -1.5 30t-28.5 5
l-70 -19q-20 -3 -26.5 5.5t3.5 25.5l39 62q11 17 4.5 28.5t-26.5 11.5l-72 -4q-21 0 -25 10.5t9 24.5l51 49q13 15 9 28.5t-25 16.5l-68 13q-21 4 -23.5 15.5t15.5 21.5l57 41q2 1 3.5 2.5l3 3l2.5 2.5t2 3l1 1q19 16 37 -12l33 -64q6 -12 13 -15.5t13.5 2t10.5 17.5l18 70
q6 19 19.5 21t25.5 -13l48 -53q14 -15 23 -11.5t11 23.5l4 70q3 20 15.5 25t27.5 -7l58 -43q17 -12 25.5 -7t4.5 25l-8 70q-3 20 8.5 28t28.5 -1l64 -29q19 -9 26.5 -1.5t1.5 26.5l-22 67q-8 19 0.5 29t27.5 4l15 -2q40 -77 70 -202.5t30 -217.5q-15 -18 -34.5 -27.5
t-59.5 -9.5h-8q0 46 -33 72q18 -21 18 -55v-15q-32 3 -32 39q0 43 -28 72t-77 29q-41 0 -68.5 -32t-27.5 -79q0 -60 49.5 -96.5t138.5 -36.5q85 0 172 42t156.5 112t125 154.5t86 175.5t30.5 169q0 59 -36.5 98t-94.5 39q-48 0 -85.5 -33.5t-37.5 -84.5q0 -106 119 -119
q-29 -119 -60 -174q-12 96 -43.5 178t-75.5 129q91 -120 107 -330l-29 -41q0 156 -51 287t-131 172q-5 9 2 18.5t22 12.5l70 12q19 3 21 13.5t-15 21.5l-59 39q-15 13 -13.5 26.5t19.5 20.5l64 28q14 4 19.5 11t0 14t-19.5 12l-64 27q-23 10 -20 29q11 6 14 16l35 61
q9 19 20.5 18t16.5 -20l20 -67q6 -21 18.5 -24t26.5 14l47 53q12 15 23 12.5t12 -22.5l4 -72q1 -21 14.5 -26.5t28.5 7.5l57 44q15 12 24 5.5t7 -26.5l-10 -70q-1 -20 10.5 -27.5t28.5 1.5l63 33q19 8 26.5 0t0.5 -29l-23 -64q-6 -20 3 -30t28 -4l70 14q20 6 26.5 -2
t-4.5 -27l-37 -59q-12 -17 -5.5 -29.5t26.5 -11.5l72 4q21 0 25 -11t-9 -24l-49 -53q-14 -13 -10.5 -26.5t24.5 -16.5l70 -12q43 -10 6 -39l-57 -39q-16 -10 -15 -24t21 -21l63 -27q12 -5 16.5 -12t0 -13.5t-16.5 -11.5zM745 336q106 0 212.5 65t183.5 162t125.5 212
t48.5 214q0 63 -41 101q24 -38 24 -84q0 -100 -47.5 -215.5t-126.5 -215.5q-85 -105 -188.5 -168t-212.5 -63q-59 0 -100 18q42 -26 122 -26z" />
    <glyph glyph-name="question" unicode="?" horiz-adv-x="1060" 
d="M1526 752q-20 -7 -21 -22t15 -25l57 -41q11 -7 14.5 -14.5t-2 -13.5t-18.5 -9l-70 -13q-21 -3 -24.5 -16.5t10.5 -28.5l49 -49q13 -14 9 -24.5t-25 -10.5l-72 4q-20 0 -26.5 -11.5t5.5 -28.5l37 -62q10 -17 4 -25.5t-26 -5.5l-70 19q-18 6 -27.5 -5t-3.5 -30l23 -68
q8 -19 0 -26t-27 2l-63 31q-17 9 -28.5 1t-10.5 -30l10 -68q1 -21 -7.5 -25.5t-23.5 7.5l-57 43q-15 12 -28.5 5.5t-14.5 -26.5l-4 -69q-1 -20 -12 -23.5t-23 10.5l-47 56q-13 14 -26 12t-19 -22l-20 -68q-3 -13 -9.5 -18t-14 -1t-13.5 15l-35 61q-9 19 -22 19t-25 -19
l-31 -61q-6 -11 -13.5 -15t-14 1t-9.5 18l-20 68q-6 20 -19 22t-26 -12l-47 -56q-12 -14 -22 -10.5t-13 23.5l-4 69q-2 20 -15 26.5t-30 -5.5l-54 -43q-17 -13 -26.5 -8t-5.5 26l10 68q1 22 -10.5 30t-30.5 -1l-62 -31q-19 -9 -26.5 -2t0.5 26l22 68q8 19 -1.5 30t-28.5 5
l-70 -19q-20 -3 -26.5 5.5t3.5 25.5l39 62q11 17 4.5 28.5t-26.5 11.5l-72 -4q-21 0 -25 10.5t9 24.5l51 49q13 15 9 28.5t-25 16.5l-68 13q-21 4 -23.5 15.5t15.5 21.5l57 41q2 1 3.5 2.5l3 3l2.5 2.5t2 3l1 1q19 16 37 -12l33 -64q6 -12 13 -15.5t13.5 2t10.5 17.5l18 70
q6 19 19.5 21t25.5 -13l48 -53q14 -15 23 -11.5t11 23.5l4 70q3 20 15.5 25t27.5 -7l58 -43q17 -12 25.5 -7t4.5 25l-8 70q-3 20 8.5 28t28.5 -1l64 -29q19 -9 26.5 -1.5t1.5 26.5l-22 67q-8 19 0.5 29t27.5 4l15 -2q40 -77 70 -202.5t30 -217.5q-15 -18 -34.5 -27.5
t-59.5 -9.5h-8q0 46 -33 72q18 -21 18 -55v-15q-32 3 -32 39q0 43 -28 72t-77 29q-41 0 -68.5 -32t-27.5 -79q0 -60 49.5 -96.5t138.5 -36.5q85 0 172 42t156.5 112t125 154.5t86 175.5t30.5 169q0 59 -36.5 98t-94.5 39q-48 0 -85.5 -33.5t-37.5 -84.5q0 -106 119 -119
q-29 -119 -60 -174q-12 96 -43.5 178t-75.5 129q91 -120 107 -330l-29 -41q0 156 -51 287t-131 172q-5 9 2 18.5t22 12.5l70 12q19 3 21 13.5t-15 21.5l-59 39q-15 13 -13.5 26.5t19.5 20.5l64 28q14 4 19.5 11t0 14t-19.5 12l-64 27q-23 10 -20 29q11 6 14 16l35 61
q9 19 20.5 18t16.5 -20l20 -67q6 -21 18.5 -24t26.5 14l47 53q12 15 23 12.5t12 -22.5l4 -72q1 -21 14.5 -26.5t28.5 7.5l57 44q15 12 24 5.5t7 -26.5l-10 -70q-1 -20 10.5 -27.5t28.5 1.5l63 33q19 8 26.5 0t0.5 -29l-23 -64q-6 -20 3 -30t28 -4l70 14q20 6 26.5 -2
t-4.5 -27l-37 -59q-12 -17 -5.5 -29.5t26.5 -11.5l72 4q21 0 25 -11t-9 -24l-49 -53q-14 -13 -10.5 -26.5t24.5 -16.5l70 -12q43 -10 6 -39l-57 -39q-16 -10 -15 -24t21 -21l63 -27q12 -5 16.5 -12t0 -13.5t-16.5 -11.5zM745 336q106 0 212.5 65t183.5 162t125.5 212
t48.5 214q0 63 -41 101q24 -38 24 -84q0 -100 -47.5 -215.5t-126.5 -215.5q-85 -105 -188.5 -168t-212.5 -63q-59 0 -100 18q42 -26 122 -26z" />
    <glyph glyph-name="at" unicode="@" horiz-adv-x="2164" 
d="M1626 948l-205 -506q-20 -49 -33.5 -85.5t-22 -68.5t-9.5 -53.5t5 -37t20 -22.5t36 -7q85 0 164.5 94.5t124.5 225t45 243.5q0 194 -141 316t-348 122q-112 0 -217 -34.5t-190 -95t-156 -142t-119 -175t-74.5 -196t-26.5 -202.5q0 -114 33 -207.5t99.5 -165t176.5 -111
t254 -39.5q95 0 208 30.5t208 90.5l107 -158q-231 -180 -572 -180q-164 0 -303 46.5t-243.5 135.5t-163 228.5t-58.5 314.5q0 151 42.5 303.5t129.5 293t208 249t292 173.5t367 65q149 0 272.5 -38t207.5 -102t141.5 -150.5t83.5 -181t26 -196.5q0 -112 -32 -224t-91 -206.5
t-136 -168t-172.5 -115.5t-195.5 -42q-53 0 -96.5 12t-70.5 31.5t-47.5 42.5t-30 46.5t-15.5 43t-7 31.5l-1 12q-5 -6 -14 -15.5t-37.5 -33.5t-58 -43t-73.5 -34t-86 -15q-87 0 -139.5 60t-52.5 159q0 48 12.5 115t36 147.5t63 158t89 141.5t119 103.5t147.5 39.5
q46 0 84.5 -14t60 -34.5t36 -40.5t19.5 -34l5 -14zM1235 653q-1 50 -23.5 73.5t-54.5 23.5q-60 0 -122.5 -85.5t-98 -184.5t-35.5 -156q0 -62 55 -62q25 0 51.5 12.5t46.5 30t36.5 35.5t25.5 30l8 13z" />
    <glyph glyph-name="A" unicode="A" horiz-adv-x="1853" 
d="M1894 569q33 -3 68 -28t45 -54q-68 -120 -121.5 -192.5t-116.5 -121.5t-133 -64t-163 -5l-117 -446l-283 158l103 372q-124 50 -308 148q-115 -178 -255 -276.5t-322 -98.5q-197 0 -311.5 110.5t-114.5 272.5q0 82 31 157.5t89.5 136t151 96.5t205.5 36q179 0 397 -98
l385 651q14 24 41.5 72t41.5 71t39.5 62t43.5 58.5t46 45t54.5 38t61 21.5t72.5 9q150 0 230.5 -108.5t41.5 -264.5l-266 -1008q22 -3 47.5 -0.5t51 6.5t56 20.5t62 42.5t69.5 72t78 109zM993 543q149 -82 246 -127l250 913l-21 8zM301 227q14 0 32.5 3.5t51.5 17.5
t66.5 37.5t76.5 68t82 103.5q-148 59 -258 59q-106 0 -158.5 -47.5t-52.5 -112.5q0 -61 49 -95t111 -34z" />
    <glyph glyph-name="B" unicode="B" horiz-adv-x="1787" 
d="M303 354q-55 0 -87 -26.5t-32 -65.5q0 -40 32.5 -62t76.5 -22q93 0 184 105q-99 71 -174 71zM1143 170q62 0 112 23.5t79.5 61.5t45 83t15.5 92q0 17 -2 34.5t-10 47t-22 56t-40 58t-60.5 57.5t-88 49.5t-119.5 37.5q-84 -206 -113 -270q-44 -104 -100 -205
q168 -125 303 -125zM303 -76q-90 0 -161.5 29t-114 76t-64.5 102.5t-22 112.5q0 55 19.5 108.5t59.5 102.5t112.5 79.5t166.5 30.5q76 0 143 -23t154 -77q35 67 68 149l198 494q49 120 155.5 208.5t248.5 88.5l59 -176q-4 -1 -11 -4.5t-27.5 -17.5t-40 -33.5t-44 -55.5
t-43.5 -80l-24 -61q52 -14 106.5 -15t106 19t92 51t65.5 81.5t25 109.5q0 115 -90 192.5t-260 77.5q-120 0 -222 -42.5t-165.5 -109t-98.5 -142t-35 -146.5q0 -42 12 -88.5t24 -72.5l12 -26l-218 -161q-4 6 -10 16.5t-22.5 46t-29 72.5t-22.5 93t-10 111q0 108 35 211
t104 192t163.5 156t221.5 105.5t269 38.5q144 0 264 -40.5t200.5 -110.5t124.5 -165t44 -204q0 -68 -17 -127t-44.5 -99t-61 -72.5t-67 -51.5t-61 -32t-44.5 -17l-17 -5q8 -5 21 -16t45.5 -48.5t58 -80.5t46 -113.5t20.5 -146.5q0 -75 -18.5 -149.5t-58 -144t-95.5 -122.5
t-137 -85t-177 -32q-127 0 -248 55.5t-266 165.5q-172 -182 -397 -182z" />
    <glyph glyph-name="C" unicode="C" horiz-adv-x="1538" 
d="M1577 569q34 -3 68.5 -28t46.5 -54q-162 -281 -387.5 -442.5t-485.5 -161.5q-223 0 -331.5 119t-108.5 324q0 102 29 247q-196 64 -302 203.5t-106 327.5q0 155 74 279.5t194 193.5l156 -227q-105 -53 -135 -168q-10 -37 -10 -80q0 -20 2 -40t14 -56t31.5 -66t59 -62
t93.5 -51q47 133 109.5 257.5t144.5 239.5t172.5 200.5t198.5 136.5t217 51q117 0 200.5 -56.5t121.5 -144.5t38 -196q0 -151 -84 -312.5t-245 -281.5q-257 -193 -619 -193h-6q-27 -111 -27 -202q0 -224 197 -224q68 0 152 26.5t177 79.5t187 147t164 214zM1268 1389
q-72 0 -158.5 -86.5t-162.5 -217.5t-138 -286q211 19 358 145q93 80 139 176.5t46 167.5q0 43 -20 72t-64 29z" />
    <glyph glyph-name="D" unicode="D" horiz-adv-x="2011" 
d="M289 565q84 0 167.5 -30.5t186.5 -100.5q35 59 70 144l196 485q48 120 156 208.5t250 88.5l59 -174q-4 -2 -11.5 -6t-29.5 -20t-41.5 -35.5t-43 -55t-40.5 -76.5q-202 -497 -202 -499q-45 -119 -123 -240q141 -104 264 -104q91 0 176.5 49t150.5 132.5t114 188t74.5 220
t25.5 225.5q0 106 -26 194t-79.5 156.5t-143 106.5t-208.5 38q-103 0 -193 -29t-152 -77t-107 -109t-66 -124.5t-21 -123.5q0 -44 12 -91t24 -72l11 -25l-217 -162q-4 6 -10 16t-22.5 45t-29 72.5t-22.5 94.5t-10 114q0 110 33.5 215t102.5 197t165.5 161.5t231 109.5
t290.5 40q185 0 330.5 -55.5t239 -155.5t142 -237t48.5 -303q0 -117 -24 -240.5t-70 -244t-119 -227t-164.5 -188t-213 -129t-257.5 -47.5q-71 0 -130 12.5t-112.5 40.5t-95 57.5t-98.5 78.5q-173 -150 -405 -150q-104 0 -182.5 30.5t-120 79.5t-61 101.5t-19.5 106.5
q0 43 12 87t39 87t66.5 75.5t99.5 53t133 20.5zM303 178q106 0 201 82q-122 94 -203 94q-56 0 -87.5 -27.5t-31.5 -66.5q0 -41 33 -61.5t88 -20.5z" />
    <glyph glyph-name="E" unicode="E" horiz-adv-x="1310" 
d="M1178 1018q-166 0 -291 98q1 -49 13 -94t27 -74.5t33 -54t29 -35t17 -14.5l-156 -232q-4 3 -11.5 9t-32 20.5t-51 25.5t-67.5 20t-82 9q-132 0 -212.5 -84.5t-80.5 -222.5q0 -137 81 -230t218 -93q69 0 129 26.5t99.5 72t62 102t21 120.5t-26.5 123l272 78
q57 -171 30.5 -318.5t-109 -256.5t-211.5 -171.5t-277 -62.5q-129 0 -242 47.5t-191.5 128.5t-123.5 192t-45 234q0 134 53.5 252.5t140 197.5t198 120t224.5 30q-20 55 -20 143q0 165 80 301q-60 170 -51 373l209 -29q-3 -85 12 -159q150 102 332 102q100 0 178 -30
t123 -80.5t67.5 -108.5t22.5 -121q0 -145 -107 -249.5t-284 -104.5zM1157 1434q-114 0 -194 -86q87 -93 196 -93q55 0 94 23.5t39 64.5q0 40 -38 65.5t-97 25.5z" />
    <glyph glyph-name="F" unicode="F" horiz-adv-x="1505" 
d="M1544 1296l-178 -444h186l-65 -164h-189l-131 -328q-225 -563 -665 -563q-124 0 -222 39t-158 105t-91 147t-31 170q0 95 36 180t100 147.5t161 95.5t211 24v-271q-55 4 -97.5 -6.5t-66.5 -28.5t-39.5 -44t-20.5 -49.5t-5 -47.5q0 -84 59 -137t137 -53q131 0 235.5 117.5
t198.5 340.5l64 162h-182l67 164h182l183 453q-105 8 -313.5 58t-291.5 50q-106 0 -157 -46t-51 -110q0 -58 38.5 -89t90.5 -31q37 0 73 15.5t53 30.5l17 15l131 -199q-5 -5 -13.5 -12.5t-37.5 -26.5t-61 -34t-81.5 -27t-99.5 -12q-98 0 -182 40.5t-139.5 125.5t-55.5 198
q0 81 28.5 153.5t84 131.5t147.5 94t209 35q87 0 202.5 -21.5t202 -44.5t194.5 -36.5t180 2.5q53 46 121.5 72t138.5 26l59 -176q-4 -2 -11.5 -5.5t-29 -18.5t-41 -34.5t-43.5 -55t-41 -77.5z" />
    <glyph glyph-name="G" unicode="G" horiz-adv-x="1740" 
d="M1780 569q34 -3 68 -28t46 -54q-109 -191 -270 -333.5t-371 -255.5q-12 -30 -35 -95t-38.5 -107t-43.5 -105t-53.5 -105t-64.5 -89.5t-80 -75.5t-96.5 -47t-118.5 -19q-75 0 -132 25t-88 66t-45.5 86t-13.5 91q0 188 261 309q34 17 121 53.5t122 51.5l68 165
q-149 -129 -311 -129q-154 0 -237 107t-83 280q0 94 33 246q-201 63 -309.5 195.5t-108.5 310.5q0 152 76 276t192 189l156 -227q-6 -3 -17 -10t-35 -27.5t-43.5 -44t-34.5 -61t-15 -77.5q0 -21 3.5 -43.5t17 -56.5t35.5 -63t64 -59t97 -50q50 129 116 248t155 231
t187.5 194t219.5 131.5t247 49.5q193 0 296.5 -108t103.5 -277q0 -180 -102.5 -329.5t-272.5 -254.5q-141 -88 -318.5 -136t-363.5 -48q-27 0 -41 2q-29 -126 -29 -201q0 -139 101 -139q81 0 189 77t183 181l35 86l352 72l-198 -492q148 97 256.5 206.5t167.5 217.5z
M1262 954q229 145 229 326q0 49 -27.5 79t-89.5 30q-100 0 -207 -83.5t-193 -208t-155 -276.5q255 16 443 133zM731 -340q-43 -24 -72.5 -58t-29.5 -69q0 -27 17 -39t40 -12q42 0 81.5 54.5t92.5 182.5q-102 -44 -129 -59z" />
    <glyph glyph-name="H" unicode="H" horiz-adv-x="1988" 
d="M2030 569q33 -3 67.5 -28t44.5 -54q-38 -69 -72.5 -122t-72 -99.5t-75 -77.5t-80 -53.5t-89.5 -32t-101 -8t-116 14.5l-193 -478l-249 187l157 395q-45 21 -129.5 66.5t-128.5 66.5q-36 -65 -72 -117t-87.5 -104t-108 -86.5t-131.5 -56t-160 -21.5q-198 0 -316 111
t-118 272q0 82 31 157.5t89 136t151 96.5t208 36q157 0 340 -72l234 584q-98 6 -253.5 43t-230.5 37q-62 0 -106 -14.5t-66 -39t-31.5 -48.5t-9.5 -50q0 -56 36 -83t89 -27q40 0 77.5 15t55.5 29l17 15l131 -196q-5 -5 -13.5 -12.5t-37.5 -27t-60.5 -34.5t-81 -27
t-100.5 -12q-73 0 -140.5 23.5t-120.5 67.5t-84.5 113.5t-31.5 155.5q0 59 15 116t50 111t86 94.5t129.5 65.5t174.5 25q95 0 218 -26.5t236 -48t201 -11.5q127 127 289 127l59 -176q-4 -2 -11.5 -6t-29.5 -20t-41.5 -36t-43 -54.5t-40.5 -74.5l-292 -729
q40 -23 123.5 -68.5t123.5 -68.5l428 1057h328l-473 -1165q93 -6 131 1q107 22 217 161q29 38 60 85zM440 227q72 0 147 56.5t134 183.5q-139 49 -236 49q-102 0 -155.5 -48t-53.5 -112q0 -56 47 -92.5t117 -36.5z" />
    <glyph glyph-name="I" unicode="I" horiz-adv-x="1296" 
d="M803 526l297 738h-1l-1 -1h-1h-1l-1 -1h-1h-1l-1 -1h-1h-1h-1l-1 -1h-1h-1l-1 -1h-1h-1l-1 -1h-1h-1l-1 -1h-1h-1l-1 -1h-1h-1q-231 -73 -314 -115q-149 -77 -150 -180q0 -65 46.5 -94t97.5 -29v-267q-187 0 -303.5 105.5t-114.5 271.5q0 59 14.5 111.5t39 94.5t64 80.5
t81 67.5t100.5 58t111.5 50.5t124 46t129 42.5t135.5 43t135 45q130 137 299 137l59 -176q-4 -2 -11.5 -5.5t-29 -18.5t-41 -34.5t-43.5 -54.5t-41 -77l-401 -998q-53 -135 -122 -237.5t-137.5 -163t-147 -98.5t-144.5 -51t-137 -13q-121 0 -218.5 39t-157 105t-91 147
t-31.5 170q0 96 36.5 181.5t101 147.5t161 94.5t209.5 23.5v-271q-68 5 -116.5 -11t-71 -46t-32 -58.5t-9.5 -58.5q0 -79 60 -135.5t146 -56.5q136 0 244 118t199 340z" />
    <glyph glyph-name="J" unicode="J" horiz-adv-x="1196" 
d="M1237 569q33 -3 68 -28t45 -54q-37 -64 -70.5 -111.5t-81.5 -96t-104 -85t-134 -70.5t-176 -61q-77 -197 -151.5 -331t-164 -228t-194.5 -137t-237 -43q-143 0 -245.5 96t-102.5 240q0 78 24.5 146t66 119t105.5 95t132 75.5t157 59t169.5 45.5t180.5 36l373 923
q-34 -16 -90 -41.5t-89.5 -41t-82 -39.5t-78 -41.5t-65.5 -41t-57.5 -44.5t-41 -46.5t-28.5 -53t-9 -56.5q0 -34 11.5 -60.5t28.5 -42t39 -25t41 -13t36 -3.5v-266q-191 0 -311 109t-119 290q0 76 25 144.5t65 122t105 105.5t129.5 90.5t156 83t166 76.5t177.5 77t175 80
q127 141 303 141l60 -176q-4 -2 -11.5 -5.5t-29.5 -19.5t-41.5 -35.5t-43 -54.5t-40.5 -76l-397 -985q122 35 208.5 96t147.5 162zM68 -406q92 0 178 94.5t172 291.5q-85 -22 -148 -41.5t-123 -45.5t-98 -54t-61 -65t-23 -79q0 -48 28 -74.5t75 -26.5z" />
    <glyph glyph-name="K" unicode="K" horiz-adv-x="1835" 
d="M1163 553l-24 4l-78 -197q-53 -135 -122 -237.5t-137.5 -163t-146.5 -98.5t-144 -51t-136 -13q-98 0 -181 26t-141 70t-99 103t-60 125.5t-19 136.5q0 96 36.5 181.5t101 147.5t161 94.5t209.5 23.5v-271q-68 5 -116.5 -11t-71 -46t-32 -58.5t-9.5 -58.5q0 -79 60 -135.5
t146 -56.5q141 0 245.5 116t197.5 342l274 680q-43 -12 -105 -28t-99.5 -25.5t-84.5 -24t-75 -29t-54 -34.5t-37.5 -46t-11.5 -58q0 -65 46.5 -94t97.5 -29v-267q-187 0 -303.5 105.5t-114.5 271.5q0 74 21.5 134.5t57 104t93 81.5t116 63t140 51.5t152 45.5t165 46.5
t166.5 51.5q130 137 299 137l60 -176q-4 -2 -11.5 -5.5t-29 -18.5t-41 -34.5t-43.5 -55t-41 -77.5l-221 -544q77 -17 144.5 -1.5t132.5 87.5t122 202l127 314q157 391 606 303l-53 -232q-56 4 -99.5 3t-84.5 -39t-76 -121l-86 -207q-175 -430 -473 -483q161 -105 106 -420
l-53 -308q-11 -113 13.5 -152t119.5 -38v-233q-117 -20 -209.5 5.5t-146.5 85t-76.5 144t-7.5 182.5l45 269q28 127 22 213.5t-35.5 135.5t-93.5 91z" />
    <glyph glyph-name="L" unicode="L" horiz-adv-x="1648" 
d="M225 526q148 0 303 -106q14 27 37.5 79t34.5 74q-197 64 -304.5 204t-107.5 327q0 154 74.5 279t194.5 194l155 -227q-105 -53 -135 -168q-10 -37 -10 -80q0 -20 3 -41.5t16.5 -59t36.5 -68.5t69 -63t108 -51q32 77 56.5 134.5t57.5 130.5t62.5 126.5t66.5 116t73 108
t79 92t88.5 78t96.5 57t108 38t119 12.5q72 0 138.5 -25.5t119 -74t84 -125.5t31.5 -172q0 -151 -85 -312.5t-247 -281.5q-264 -198 -647 -193q-68 -186 -135 -311q278 -256 424 -377q73 -57 119 -78.5t90 -21.5q121 0 272 145l187 -211q-108 -104 -227.5 -158.5
t-227.5 -54.5q-95 0 -183.5 41.5t-191.5 122.5q-55 43 -110.5 93t-151 139.5t-158.5 146.5q-149 -149 -364 -149q-98 0 -174.5 30.5t-118.5 79.5t-63 103.5t-21 109.5q0 59 22 118t64 111.5t113 85.5t159 33zM1452 1389q-195 0 -444 -590q208 18 356 145q92 80 138 175.5
t46 160.5q0 109 -96 109zM219 104q84 0 168 97q-101 88 -168 88q-44 0 -72 -29.5t-28 -69.5q0 -39 29 -62.5t71 -23.5z" />
    <glyph glyph-name="M" unicode="M" horiz-adv-x="2326" 
d="M1008 1581l258 -164q85 68 184 107t176 39q92 0 147 -57t58 -144q99 97 217 149t205 52q96 0 149.5 -60.5t53.5 -152.5q0 -94 -76 -285l-428 -1061q-17 -48 -22.5 -82t1 -66t31 -57.5t68.5 -48.5l-101 -248q-116 39 -190 99.5t-102.5 135t-24.5 155.5t37 171l354 879
q94 227 94 270q0 48 -53 48q-52 0 -134 -51t-157 -136l-440 -1100h-326l389 969q94 227 94 270q0 48 -55 48q-48 0 -125.5 -47.5t-154.5 -125.5l-447 -1114h-326l521 1295q-41 -14 -103 -33.5t-101.5 -32t-92.5 -30.5t-87 -32.5t-74 -33t-64 -37t-45.5 -41t-31.5 -47.5
t-10 -53q0 -65 46.5 -94t97.5 -29v-266q-187 0 -303.5 105t-114.5 271q0 77 25 143t65 115t105 93t130.5 75t156.5 64t168 57t180 57.5t178 61.5z" />
    <glyph glyph-name="N" unicode="N" horiz-adv-x="1765" 
d="M1008 1581l219 -264q273 246 465 246q96 0 149 -61t53 -154q0 -90 -77 -283l-426 -1061q-17 -48 -23 -82t0.5 -66t31 -57.5t68.5 -48.5l-100 -248q-116 39 -190 99.5t-102.5 135t-25 155.5t36.5 171l355 879q8 21 28 71t27.5 69.5t19 50.5t15.5 49t4 30q0 22 -13 35
t-34 13q-56 0 -179.5 -89.5t-217.5 -189.5l-404 -1008h-326l521 1295q-41 -14 -103 -33.5t-101.5 -32t-92.5 -30.5t-87 -32.5t-74 -33t-64 -37t-45.5 -41t-31.5 -47.5t-10 -53q0 -65 46.5 -94t97.5 -29v-266q-187 0 -303.5 105t-114.5 271q0 77 25 143t65 115t105 93
t130.5 75t156.5 64t168 57t180 57.5t178 61.5z" />
    <glyph glyph-name="O" unicode="O" horiz-adv-x="1488" 
d="M1528 569q32 -3 67 -28t47 -54q-28 -49 -66 -94t-91 -90t-113 -72.5t-133.5 -40.5t-151.5 5q-132 -176 -293 -277.5t-343 -101.5q-95 0 -172 28.5t-128 77t-85.5 116t-50 143.5t-15.5 161q0 118 28.5 254.5t87.5 279.5t140.5 270t197 231.5t246.5 158.5q137 170 342 170
q79 0 147.5 -27t126 -83t91 -155t33.5 -231q0 -192 -63.5 -420t-178.5 -428q201 -11 330 207zM805 322q-6 4 -17 12.5t-42 40t-58.5 68.5t-60 99.5t-55 131.5t-35.5 165.5t-7 200.5q-96 -171 -161.5 -372t-65.5 -346q0 -110 41 -182t127 -72q161 0 334 254zM786 967
q0 -274 138 -449q90 177 146 364.5t56 305.5q0 91 -31.5 140.5t-88.5 49.5q-88 0 -154 -111t-66 -300z" />
    <glyph glyph-name="P" unicode="P" horiz-adv-x="1431" 
d="M795 1038l-125 -305q71 -39 150.5 -42.5t150.5 28.5t129 87t92.5 136.5t34.5 173.5q0 53 -11.5 103t-41 101t-74 88.5t-116.5 61t-163 23.5q-105 0 -197.5 -30t-157 -79.5t-111 -111.5t-69 -127.5t-22.5 -126.5q0 -44 12 -91t24 -73l11 -25l-217 -161q-4 6 -11 17.5
t-24 48.5t-30 75t-24 94.5t-11 110.5q0 65 14.5 133.5t46.5 140.5t78 138.5t114.5 125t150.5 102t191 68.5t232 25q146 0 267.5 -36t203.5 -96.5t138.5 -142t82 -170.5t25.5 -184q0 -160 -71.5 -304t-198 -237t-301 -114t-381.5 63l-221 -553h-326l457 1135q22 55 59 106
t87.5 95t117.5 70t141 26l60 -176q-4 -2 -11.5 -5.5t-29 -19.5t-41 -35.5t-43.5 -54.5t-41 -76z" />
    <glyph glyph-name="Q" unicode="Q" horiz-adv-x="1464" 
d="M1470 1130q0 -244 -150.5 -537.5t-379.5 -514.5q268 -249 369 -330q68 -55 116.5 -77.5t92.5 -22.5q121 0 272 145l186 -213q-107 -102 -226.5 -157.5t-225.5 -55.5q-96 0 -185.5 42.5t-193.5 121.5q-85 66 -215 193.5t-197 187.5q-225 -152 -424 -152q-161 0 -271 92.5
t-110 231.5q0 46 13 93t43 93t73 82t109 58t145 22q207 0 420 -170q175 189 298.5 434.5t123.5 429.5q0 134 -70.5 220t-201.5 86q-98 0 -188 -50.5t-151 -128.5t-97.5 -170.5t-36.5 -177.5q0 -34 5.5 -62t17 -47t23 -34t30 -24t31 -15t33 -8.5t30 -3.5t27 -1.5t18.5 -0.5
l-52 -222q-238 -7 -355.5 113t-117.5 320q0 144 60.5 284.5t165.5 252t262 180.5t336 69q97 0 177.5 -21t136 -55.5t98 -83.5t68 -99.5t41.5 -109.5t21.5 -108t5.5 -99zM322 10q91 0 204 74q-130 102 -237 102q-52 0 -80.5 -23.5t-28.5 -58.5q0 -46 42.5 -70t99.5 -24z" />
    <glyph glyph-name="R" unicode="R" horiz-adv-x="1421" 
d="M795 1038l-86 -215q70 -43 146 -50t140.5 20t117.5 76t83.5 118.5t30.5 145.5q0 47 -11.5 94t-41 96t-74 86t-117 60.5t-162.5 23.5q-104 0 -196 -30t-157 -79.5t-112 -111.5t-69.5 -127.5t-22.5 -126.5q0 -44 12 -91t24 -73l11 -25l-217 -161q-4 6 -11 17.5t-24 48.5
t-30 75t-24 94t-11 109q0 92 28.5 189.5t93 196.5t157.5 175.5t234.5 125t311.5 48.5q147 0 268.5 -36t203.5 -96t139 -139t82.5 -164t25.5 -173q0 -80 -21.5 -159.5t-64 -151t-101 -130t-138 -98.5t-169.5 -53q44 -35 69 -82t30.5 -102.5t3 -101t-11.5 -103.5l-54 -308
q-11 -113 13.5 -152t119.5 -38v-233q-120 -20 -214.5 5.5t-149.5 85t-78 144t-8 182.5l47 269q39 182 25 292.5t-97 167.5q-27 8 -53.5 18t-43.5 17l-17 8l-260 -643h-326l457 1135q22 55 59 106t87.5 95t117.5 70t141 26l60 -176q-4 -2 -11.5 -6t-29.5 -19.5t-41.5 -35.5
t-43 -54.5t-40.5 -75.5z" />
    <glyph glyph-name="S" unicode="S" horiz-adv-x="1394" 
d="M250 449q0 -95 39 -166q100 94 643 583q-53 236 -53 383q0 224 112.5 356t296.5 132q66 0 120.5 -19t90.5 -50t61.5 -71.5t36.5 -84t11 -87.5q0 -71 -27.5 -144t-83.5 -148.5t-110.5 -135.5t-137.5 -141q45 -229 45 -369q0 -202 -89 -355.5t-243 -234.5t-348 -81
q-207 0 -374 98q-80 -95 -110 -189t-9 -210h-213q-46 263 168 546q-117 158 -117 375q0 115 34.5 215.5t93 172.5t138 122t167 69t183 7t183.5 -57l-99 -248q-62 31 -123.5 35t-112 -17.5t-90 -61.5t-61.5 -98.5t-22 -125.5zM989 504q0 17 -3.5 52t-4.5 50
q-100 -93 -524 -475q65 -33 153 -33q166 0 272.5 116.5t106.5 289.5zM1180 1278q0 -65 16 -156q82 85 119 147.5t37 116.5q0 76 -66 76q-35 0 -58.5 -21t-32.5 -55t-12 -58t-3 -50z" />
    <glyph glyph-name="T" unicode="T" horiz-adv-x="1361" 
d="M2208 1499q-1 -5 -3 -13.5t-13 -33.5t-27 -47.5t-48 -50t-72.5 -47.5t-104.5 -33.5t-140 -13.5q-160 0 -301 22l-330 -813q-223 -563 -669 -563q-98 0 -181 26t-141 70t-99 103t-60 125.5t-19 136.5q0 94 35 178t98.5 147t161 96.5t213.5 24.5v-270q-68 5 -116.5 -11
t-71 -46t-32 -59.5t-9.5 -61.5q0 -85 59 -137t141 -52q137 0 235.5 113t194.5 346l285 704q-23 5 -88 19.5t-91 20t-82.5 17.5t-85 17.5t-74.5 13.5t-75 11.5t-61.5 6.5t-58.5 3q-102 0 -153.5 -37.5t-51.5 -97.5q0 -56 40.5 -87.5t92.5 -31.5q36 0 71 15t53 31l17 15
l131 -198q-5 -5 -13.5 -12.5t-37.5 -27t-60.5 -34.5t-81 -27t-100.5 -12q-99 0 -183 40.5t-138.5 126.5t-54.5 202q0 63 16.5 121t54 111t92.5 92t138.5 62t185.5 23q111 0 279 -29.5t314 -64.5t316 -64.5t285 -29.5q84 0 146 15t82 29l20 15z" />
    <glyph glyph-name="U" unicode="U" horiz-adv-x="1830" 
d="M1872 569q33 -3 68 -28t45 -54q-64 -112 -125 -197t-134 -160.5t-155 -116t-168 -40.5q-104 0 -171.5 60t-55.5 186q-240 -297 -469 -297q-84 0 -142.5 38.5t-87 113.5t-12.5 197.5t80 277.5l235 584q-16 -5 -47 -15q-50 -16 -74.5 -24t-68.5 -22.5t-66.5 -24
t-58.5 -24.5t-55.5 -26.5t-45 -27.5t-39 -31t-27 -33.5t-19 -38t-5.5 -41.5q0 -35 15 -61t38.5 -38.5t46 -18t44.5 -5.5v-268q-187 0 -303.5 106.5t-114.5 272.5q0 59 14.5 111.5t39 94t64.5 80t81 67.5t100.5 58.5t112 50.5t124.5 46t129 43t135.5 43t135.5 45
q58 74 141.5 120t182.5 46l59 -176q-4 -2 -11.5 -5.5t-29 -19t-41 -35t-43.5 -55t-41 -78.5l-305 -755q-50 -126 -58 -195.5t4 -79.5t31 -10q89 0 225 119.5t210 261.5l358 897h326l-416 -1043q-23 -60 -33.5 -104.5t-10 -69t9 -39t19 -18.5t25.5 -4q69 0 146.5 85
t187.5 275z" />
    <glyph glyph-name="V" unicode="V" horiz-adv-x="1714" 
d="M1157 1282l-203 -928q126 97 232.5 213.5t181 235t131.5 237t92.5 235t55.5 212t28 184.5l303 41q-5 -66 -13.5 -130t-28 -161t-46.5 -188.5t-73 -205t-103.5 -217.5t-141 -219.5t-183 -218.5t-233 -207.5t-286.5 -191.5h-317l266 1203q-246 -79 -289 -96
q-188 -71 -236 -152q-20 -35 -20 -74q0 -65 46.5 -94t97.5 -29v-266q-187 0 -303.5 106.5t-114.5 272.5q0 59 14.5 111t38 93.5t63 79.5t80.5 67t99 58t110 49.5t122.5 45.5t127.5 42.5t134 42.5t133 44q53 81 142.5 133.5t213.5 52.5l59 -176q-6 -1 -15.5 -4t-35 -17
t-48 -34t-46 -60t-35.5 -90z" />
    <glyph glyph-name="W" unicode="W" horiz-adv-x="2185" 
d="M1769 618l299 738q158 389 605 301l-54 -232q-56 4 -99.5 3t-84.5 -39t-76 -121l-286 -713q-37 -92 -81.5 -175.5t-108.5 -169t-134.5 -147t-162 -100.5t-189.5 -39q-73 0 -127 21t-81.5 55.5t-39.5 71t-10 73.5q-33 -37 -74.5 -72t-96.5 -70.5t-122.5 -57t-134.5 -21.5
q-73 0 -126.5 25t-86 76t-40.5 124.5t12.5 176t70.5 225.5l247 614q-237 -75 -307 -105q-170 -72 -200 -160q-7 -23 -7 -46q0 -65 46.5 -94t97.5 -29v-266q-187 0 -303.5 106.5t-114.5 272.5q0 59 14.5 111.5t39 94.5t64.5 80t81.5 67t100.5 58t112 50t124.5 45.5t129 42.5
t135.5 43t135 45q61 81 147 131.5t189 50.5l59 -176q-4 -2 -11.5 -5.5t-29 -19t-41 -35t-43.5 -55t-41 -78.5l-331 -827q-28 -69 -43 -119t-18.5 -78t1.5 -44.5t14 -21.5t23 -5q73 0 175 120.5t181 296.5l353 871h327l-411 -1020q-28 -69 -43 -119t-18.5 -78t1.5 -44.5
t14 -21.5t23 -5q74 0 177 122.5t179 296.5z" />
    <glyph glyph-name="X" unicode="X" horiz-adv-x="1619" 
d="M1708 1552q51 72 111 117.5t136.5 68t173 10t210.5 -61.5l-107 -216q-32 11 -50.5 16t-46.5 9t-49 -1.5t-47 -17.5t-52 -38t-54 -64l-602 -846l45 -680q4 -59 15 -98.5t26.5 -59t40.5 -26t48 -3.5t57 13l49 -252q-62 -19 -124.5 -24t-133.5 12t-126.5 60t-96.5 133
t-50 219l-22 323l-33 -49q-35 -50 -76.5 -99.5t-110.5 -114.5t-141.5 -113t-167 -81.5t-188.5 -33.5q-186 0 -305 108t-119 271q0 48 10.5 97.5t42 107t80 101.5t134 73.5t194.5 29.5v-258q-101 0 -146 -39.5t-45 -97.5q0 -35 14.5 -60.5t38.5 -38t48 -18.5t49 -6
q53 0 113.5 28t110.5 67.5t101.5 93t83.5 93.5t60 79l225 315l-43 649q-36 -12 -98 -31.5t-97 -31t-88 -29.5t-84 -32t-70.5 -33t-62 -37.5t-43.5 -41t-30.5 -47.5t-9.5 -53q0 -34 15 -59t38.5 -37.5t46 -18t43.5 -5.5v-267q-187 0 -303.5 106.5t-114.5 272.5q0 57 14 108
t36 92t61 79t76.5 66.5t96 58t106 49.5t118.5 45t122.5 41.5t130.5 41.5t130 42q107 196 369 196l59 -176q-26 -9 -52 -25t-56 -42.5t-47.5 -69t-14.5 -92.5l23 -338z" />
    <glyph glyph-name="Y" unicode="Y" horiz-adv-x="1771" 
d="M1810 569q33 -3 68 -28t47 -54q-68 -119 -141.5 -211.5t-153.5 -162t-155 -119.5t-172 -100q-13 -32 -36 -94.5t-39.5 -106t-44.5 -104.5t-54 -104t-64.5 -89.5t-79.5 -75t-96 -47t-117 -18.5q-76 0 -133 25t-87.5 66.5t-45 85.5t-14.5 91q2 192 262 309q32 16 120 53
t121 52l68 165q-184 -180 -361 -180q-65 0 -115.5 24t-82.5 74.5t-41.5 123t11 177t71.5 228.5l237 584q-237 -75 -308 -106q-165 -71 -193 -159q-7 -21 -7 -43q0 -35 15 -61t38.5 -38.5t46 -18t44.5 -5.5v-268q-187 0 -303.5 106.5t-114.5 272.5q0 59 14.5 111.5t39 94.5
t64 80.5t81 67.5t100.5 58t112 50.5t124.5 46t129 42.5t136 43t135.5 45q58 74 141.5 120t182.5 46l59 -176q-4 -2 -11.5 -5.5t-29 -19t-41 -35t-43.5 -55t-41 -78.5l-305 -755q-50 -125 -58.5 -194t3 -80t32.5 -11q90 0 224.5 120.5t210.5 260.5l360 897h326l-545 -1348
q258 159 409 430zM735 -518q41 0 81 55.5t93 183.5q-115 -52 -129 -61q-43 -24 -72.5 -58t-29.5 -69q0 -27 17 -39t40 -12z" />
    <glyph glyph-name="Z" unicode="Z" horiz-adv-x="1368" 
d="M729 522l598 789q-87 11 -280 56.5t-273 45.5q-106 0 -158.5 -46t-52.5 -110q0 -58 39.5 -89t91.5 -31q37 0 73 15.5t53 30.5l18 15l131 -199q-5 -5 -13.5 -12.5t-37.5 -26.5t-61 -34t-81.5 -27t-99.5 -12q-73 0 -140.5 24t-120.5 68.5t-84.5 115t-31.5 156.5
q0 81 28.5 153.5t84 131.5t147.5 94t209 35q90 0 212 -23t212.5 -46t203.5 -35t185 10q117 92 262 92l60 -176l-7 -2q-6 -2 -15 -6t-22 -10t-28 -15t-30.5 -19.5t-32 -26t-31.5 -32.5l-684 -899q-169 -219 -250 -305q275 -249 377 -332q73 -57 118.5 -78.5t87.5 -21.5
q124 0 275 145l186 -211q-113 -109 -232.5 -162.5t-223.5 -50.5q-180 5 -375 162q-45 36 -101 87t-152.5 141.5t-154.5 144.5q-195 -141 -391 -141q-95 0 -169.5 30.5t-116.5 79.5t-63.5 104t-21.5 111q0 45 13 92t42.5 93t70.5 82t102.5 58.5t134.5 22.5q104 0 194 -43.5
t191 -124.5q73 83 135 162zM203 104q78 0 194 80q-127 105 -200 105q-43 0 -71 -29t-28 -70q0 -40 29.5 -64t75.5 -22z" />
    <glyph glyph-name="bracketleft" unicode="[" horiz-adv-x="899" 
d="M1526 752q-20 -7 -21 -22t15 -25l57 -41q11 -7 14.5 -14.5t-2 -13.5t-18.5 -9l-70 -13q-21 -3 -24.5 -16.5t10.5 -28.5l49 -49q13 -14 9 -24.5t-25 -10.5l-72 4q-20 0 -26.5 -11.5t5.5 -28.5l37 -62q10 -17 4 -25.5t-26 -5.5l-70 19q-18 6 -27.5 -5t-3.5 -30l23 -68
q8 -19 0 -26t-27 2l-63 31q-17 9 -28.5 1t-10.5 -30l10 -68q1 -21 -7.5 -25.5t-23.5 7.5l-57 43q-15 12 -28.5 5.5t-14.5 -26.5l-4 -69q-1 -20 -12 -23.5t-23 10.5l-47 56q-13 14 -26 12t-19 -22l-20 -68q-3 -13 -9.5 -18t-14 -1t-13.5 15l-35 61q-9 19 -22 19t-25 -19
l-31 -61q-6 -11 -13.5 -15t-14 1t-9.5 18l-20 68q-6 20 -19 22t-26 -12l-47 -56q-12 -14 -22 -10.5t-13 23.5l-4 69q-2 20 -15 26.5t-30 -5.5l-54 -43q-17 -13 -26.5 -8t-5.5 26l10 68q1 22 -10.5 30t-30.5 -1l-62 -31q-19 -9 -26.5 -2t0.5 26l22 68q8 19 -1.5 30t-28.5 5
l-70 -19q-20 -3 -26.5 5.5t3.5 25.5l39 62q11 17 4.5 28.5t-26.5 11.5l-72 -4q-21 0 -25 10.5t9 24.5l51 49q13 15 9 28.5t-25 16.5l-68 13q-21 4 -23.5 15.5t15.5 21.5l57 41q2 1 3.5 2.5l3 3l2.5 2.5t2 3l1 1q19 16 37 -12l33 -64q6 -12 13 -15.5t13.5 2t10.5 17.5l18 70
q6 19 19.5 21t25.5 -13l48 -53q14 -15 23 -11.5t11 23.5l4 70q3 20 15.5 25t27.5 -7l58 -43q17 -12 25.5 -7t4.5 25l-8 70q-3 20 8.5 28t28.5 -1l64 -29q19 -9 26.5 -1.5t1.5 26.5l-22 67q-8 19 0.5 29t27.5 4l15 -2q40 -77 70 -202.5t30 -217.5q-15 -18 -34.5 -27.5
t-59.5 -9.5h-8q0 46 -33 72q18 -21 18 -55v-15q-32 3 -32 39q0 43 -28 72t-77 29q-41 0 -68.5 -32t-27.5 -79q0 -60 49.5 -96.5t138.5 -36.5q85 0 172 42t156.5 112t125 154.5t86 175.5t30.5 169q0 59 -36.5 98t-94.5 39q-48 0 -85.5 -33.5t-37.5 -84.5q0 -106 119 -119
q-29 -119 -60 -174q-12 96 -43.5 178t-75.5 129q91 -120 107 -330l-29 -41q0 156 -51 287t-131 172q-5 9 2 18.5t22 12.5l70 12q19 3 21 13.5t-15 21.5l-59 39q-15 13 -13.5 26.5t19.5 20.5l64 28q14 4 19.5 11t0 14t-19.5 12l-64 27q-23 10 -20 29q11 6 14 16l35 61
q9 19 20.5 18t16.5 -20l20 -67q6 -21 18.5 -24t26.5 14l47 53q12 15 23 12.5t12 -22.5l4 -72q1 -21 14.5 -26.5t28.5 7.5l57 44q15 12 24 5.5t7 -26.5l-10 -70q-1 -20 10.5 -27.5t28.5 1.5l63 33q19 8 26.5 0t0.5 -29l-23 -64q-6 -20 3 -30t28 -4l70 14q20 6 26.5 -2
t-4.5 -27l-37 -59q-12 -17 -5.5 -29.5t26.5 -11.5l72 4q21 0 25 -11t-9 -24l-49 -53q-14 -13 -10.5 -26.5t24.5 -16.5l70 -12q43 -10 6 -39l-57 -39q-16 -10 -15 -24t21 -21l63 -27q12 -5 16.5 -12t0 -13.5t-16.5 -11.5zM745 336q106 0 212.5 65t183.5 162t125.5 212
t48.5 214q0 63 -41 101q24 -38 24 -84q0 -100 -47.5 -215.5t-126.5 -215.5q-85 -105 -188.5 -168t-212.5 -63q-59 0 -100 18q42 -26 122 -26z" />
    <glyph glyph-name="backslash" unicode="\" horiz-adv-x="786" 
d="M1526 752q-20 -7 -21 -22t15 -25l57 -41q11 -7 14.5 -14.5t-2 -13.5t-18.5 -9l-70 -13q-21 -3 -24.5 -16.5t10.5 -28.5l49 -49q13 -14 9 -24.5t-25 -10.5l-72 4q-20 0 -26.5 -11.5t5.5 -28.5l37 -62q10 -17 4 -25.5t-26 -5.5l-70 19q-18 6 -27.5 -5t-3.5 -30l23 -68
q8 -19 0 -26t-27 2l-63 31q-17 9 -28.5 1t-10.5 -30l10 -68q1 -21 -7.5 -25.5t-23.5 7.5l-57 43q-15 12 -28.5 5.5t-14.5 -26.5l-4 -69q-1 -20 -12 -23.5t-23 10.5l-47 56q-13 14 -26 12t-19 -22l-20 -68q-3 -13 -9.5 -18t-14 -1t-13.5 15l-35 61q-9 19 -22 19t-25 -19
l-31 -61q-6 -11 -13.5 -15t-14 1t-9.5 18l-20 68q-6 20 -19 22t-26 -12l-47 -56q-12 -14 -22 -10.5t-13 23.5l-4 69q-2 20 -15 26.5t-30 -5.5l-54 -43q-17 -13 -26.5 -8t-5.5 26l10 68q1 22 -10.5 30t-30.5 -1l-62 -31q-19 -9 -26.5 -2t0.5 26l22 68q8 19 -1.5 30t-28.5 5
l-70 -19q-20 -3 -26.5 5.5t3.5 25.5l39 62q11 17 4.5 28.5t-26.5 11.5l-72 -4q-21 0 -25 10.5t9 24.5l51 49q13 15 9 28.5t-25 16.5l-68 13q-21 4 -23.5 15.5t15.5 21.5l57 41q2 1 3.5 2.5l3 3l2.5 2.5t2 3l1 1q19 16 37 -12l33 -64q6 -12 13 -15.5t13.5 2t10.5 17.5l18 70
q6 19 19.5 21t25.5 -13l48 -53q14 -15 23 -11.5t11 23.5l4 70q3 20 15.5 25t27.5 -7l58 -43q17 -12 25.5 -7t4.5 25l-8 70q-3 20 8.5 28t28.5 -1l64 -29q19 -9 26.5 -1.5t1.5 26.5l-22 67q-8 19 0.5 29t27.5 4l15 -2q40 -77 70 -202.5t30 -217.5q-15 -18 -34.5 -27.5
t-59.5 -9.5h-8q0 46 -33 72q18 -21 18 -55v-15q-32 3 -32 39q0 43 -28 72t-77 29q-41 0 -68.5 -32t-27.5 -79q0 -60 49.5 -96.5t138.5 -36.5q85 0 172 42t156.5 112t125 154.5t86 175.5t30.5 169q0 59 -36.5 98t-94.5 39q-48 0 -85.5 -33.5t-37.5 -84.5q0 -106 119 -119
q-29 -119 -60 -174q-12 96 -43.5 178t-75.5 129q91 -120 107 -330l-29 -41q0 156 -51 287t-131 172q-5 9 2 18.5t22 12.5l70 12q19 3 21 13.5t-15 21.5l-59 39q-15 13 -13.5 26.5t19.5 20.5l64 28q14 4 19.5 11t0 14t-19.5 12l-64 27q-23 10 -20 29q11 6 14 16l35 61
q9 19 20.5 18t16.5 -20l20 -67q6 -21 18.5 -24t26.5 14l47 53q12 15 23 12.5t12 -22.5l4 -72q1 -21 14.5 -26.5t28.5 7.5l57 44q15 12 24 5.5t7 -26.5l-10 -70q-1 -20 10.5 -27.5t28.5 1.5l63 33q19 8 26.5 0t0.5 -29l-23 -64q-6 -20 3 -30t28 -4l70 14q20 6 26.5 -2
t-4.5 -27l-37 -59q-12 -17 -5.5 -29.5t26.5 -11.5l72 4q21 0 25 -11t-9 -24l-49 -53q-14 -13 -10.5 -26.5t24.5 -16.5l70 -12q43 -10 6 -39l-57 -39q-16 -10 -15 -24t21 -21l63 -27q12 -5 16.5 -12t0 -13.5t-16.5 -11.5zM745 336q106 0 212.5 65t183.5 162t125.5 212
t48.5 214q0 63 -41 101q24 -38 24 -84q0 -100 -47.5 -215.5t-126.5 -215.5q-85 -105 -188.5 -168t-212.5 -63q-59 0 -100 18q42 -26 122 -26z" />
    <glyph glyph-name="bracketright" unicode="]" horiz-adv-x="897" 
d="M1526 752q-20 -7 -21 -22t15 -25l57 -41q11 -7 14.5 -14.5t-2 -13.5t-18.5 -9l-70 -13q-21 -3 -24.5 -16.5t10.5 -28.5l49 -49q13 -14 9 -24.5t-25 -10.5l-72 4q-20 0 -26.5 -11.5t5.5 -28.5l37 -62q10 -17 4 -25.5t-26 -5.5l-70 19q-18 6 -27.5 -5t-3.5 -30l23 -68
q8 -19 0 -26t-27 2l-63 31q-17 9 -28.5 1t-10.5 -30l10 -68q1 -21 -7.5 -25.5t-23.5 7.5l-57 43q-15 12 -28.5 5.5t-14.5 -26.5l-4 -69q-1 -20 -12 -23.5t-23 10.5l-47 56q-13 14 -26 12t-19 -22l-20 -68q-3 -13 -9.5 -18t-14 -1t-13.5 15l-35 61q-9 19 -22 19t-25 -19
l-31 -61q-6 -11 -13.5 -15t-14 1t-9.5 18l-20 68q-6 20 -19 22t-26 -12l-47 -56q-12 -14 -22 -10.5t-13 23.5l-4 69q-2 20 -15 26.5t-30 -5.5l-54 -43q-17 -13 -26.5 -8t-5.5 26l10 68q1 22 -10.5 30t-30.5 -1l-62 -31q-19 -9 -26.5 -2t0.5 26l22 68q8 19 -1.5 30t-28.5 5
l-70 -19q-20 -3 -26.5 5.5t3.5 25.5l39 62q11 17 4.5 28.5t-26.5 11.5l-72 -4q-21 0 -25 10.5t9 24.5l51 49q13 15 9 28.5t-25 16.5l-68 13q-21 4 -23.5 15.5t15.5 21.5l57 41q2 1 3.5 2.5l3 3l2.5 2.5t2 3l1 1q19 16 37 -12l33 -64q6 -12 13 -15.5t13.5 2t10.5 17.5l18 70
q6 19 19.5 21t25.5 -13l48 -53q14 -15 23 -11.5t11 23.5l4 70q3 20 15.5 25t27.5 -7l58 -43q17 -12 25.5 -7t4.5 25l-8 70q-3 20 8.5 28t28.5 -1l64 -29q19 -9 26.5 -1.5t1.5 26.5l-22 67q-8 19 0.5 29t27.5 4l15 -2q40 -77 70 -202.5t30 -217.5q-15 -18 -34.5 -27.5
t-59.5 -9.5h-8q0 46 -33 72q18 -21 18 -55v-15q-32 3 -32 39q0 43 -28 72t-77 29q-41 0 -68.5 -32t-27.5 -79q0 -60 49.5 -96.5t138.5 -36.5q85 0 172 42t156.5 112t125 154.5t86 175.5t30.5 169q0 59 -36.5 98t-94.5 39q-48 0 -85.5 -33.5t-37.5 -84.5q0 -106 119 -119
q-29 -119 -60 -174q-12 96 -43.5 178t-75.5 129q91 -120 107 -330l-29 -41q0 156 -51 287t-131 172q-5 9 2 18.5t22 12.5l70 12q19 3 21 13.5t-15 21.5l-59 39q-15 13 -13.5 26.5t19.5 20.5l64 28q14 4 19.5 11t0 14t-19.5 12l-64 27q-23 10 -20 29q11 6 14 16l35 61
q9 19 20.5 18t16.5 -20l20 -67q6 -21 18.5 -24t26.5 14l47 53q12 15 23 12.5t12 -22.5l4 -72q1 -21 14.5 -26.5t28.5 7.5l57 44q15 12 24 5.5t7 -26.5l-10 -70q-1 -20 10.5 -27.5t28.5 1.5l63 33q19 8 26.5 0t0.5 -29l-23 -64q-6 -20 3 -30t28 -4l70 14q20 6 26.5 -2
t-4.5 -27l-37 -59q-12 -17 -5.5 -29.5t26.5 -11.5l72 4q21 0 25 -11t-9 -24l-49 -53q-14 -13 -10.5 -26.5t24.5 -16.5l70 -12q43 -10 6 -39l-57 -39q-16 -10 -15 -24t21 -21l63 -27q12 -5 16.5 -12t0 -13.5t-16.5 -11.5zM745 336q106 0 212.5 65t183.5 162t125.5 212
t48.5 214q0 63 -41 101q24 -38 24 -84q0 -100 -47.5 -215.5t-126.5 -215.5q-85 -105 -188.5 -168t-212.5 -63q-59 0 -100 18q42 -26 122 -26z" />
    <glyph glyph-name="asciicircum" unicode="^" horiz-adv-x="1067" 
d="M0 623l696 845h271v-845h-281v393l-319 -393h-367z" />
    <glyph glyph-name="underscore" unicode="_" horiz-adv-x="1140" 
d="M1526 752q-20 -7 -21 -22t15 -25l57 -41q11 -7 14.5 -14.5t-2 -13.5t-18.5 -9l-70 -13q-21 -3 -24.5 -16.5t10.5 -28.5l49 -49q13 -14 9 -24.5t-25 -10.5l-72 4q-20 0 -26.5 -11.5t5.5 -28.5l37 -62q10 -17 4 -25.5t-26 -5.5l-70 19q-18 6 -27.5 -5t-3.5 -30l23 -68
q8 -19 0 -26t-27 2l-63 31q-17 9 -28.5 1t-10.5 -30l10 -68q1 -21 -7.5 -25.5t-23.5 7.5l-57 43q-15 12 -28.5 5.5t-14.5 -26.5l-4 -69q-1 -20 -12 -23.5t-23 10.5l-47 56q-13 14 -26 12t-19 -22l-20 -68q-3 -13 -9.5 -18t-14 -1t-13.5 15l-35 61q-9 19 -22 19t-25 -19
l-31 -61q-6 -11 -13.5 -15t-14 1t-9.5 18l-20 68q-6 20 -19 22t-26 -12l-47 -56q-12 -14 -22 -10.5t-13 23.5l-4 69q-2 20 -15 26.5t-30 -5.5l-54 -43q-17 -13 -26.5 -8t-5.5 26l10 68q1 22 -10.5 30t-30.5 -1l-62 -31q-19 -9 -26.5 -2t0.5 26l22 68q8 19 -1.5 30t-28.5 5
l-70 -19q-20 -3 -26.5 5.5t3.5 25.5l39 62q11 17 4.5 28.5t-26.5 11.5l-72 -4q-21 0 -25 10.5t9 24.5l51 49q13 15 9 28.5t-25 16.5l-68 13q-21 4 -23.5 15.5t15.5 21.5l57 41q2 1 3.5 2.5l3 3l2.5 2.5t2 3l1 1q19 16 37 -12l33 -64q6 -12 13 -15.5t13.5 2t10.5 17.5l18 70
q6 19 19.5 21t25.5 -13l48 -53q14 -15 23 -11.5t11 23.5l4 70q3 20 15.5 25t27.5 -7l58 -43q17 -12 25.5 -7t4.5 25l-8 70q-3 20 8.5 28t28.5 -1l64 -29q19 -9 26.5 -1.5t1.5 26.5l-22 67q-8 19 0.5 29t27.5 4l15 -2q40 -77 70 -202.5t30 -217.5q-15 -18 -34.5 -27.5
t-59.5 -9.5h-8q0 46 -33 72q18 -21 18 -55v-15q-32 3 -32 39q0 43 -28 72t-77 29q-41 0 -68.5 -32t-27.5 -79q0 -60 49.5 -96.5t138.5 -36.5q85 0 172 42t156.5 112t125 154.5t86 175.5t30.5 169q0 59 -36.5 98t-94.5 39q-48 0 -85.5 -33.5t-37.5 -84.5q0 -106 119 -119
q-29 -119 -60 -174q-12 96 -43.5 178t-75.5 129q91 -120 107 -330l-29 -41q0 156 -51 287t-131 172q-5 9 2 18.5t22 12.5l70 12q19 3 21 13.5t-15 21.5l-59 39q-15 13 -13.5 26.5t19.5 20.5l64 28q14 4 19.5 11t0 14t-19.5 12l-64 27q-23 10 -20 29q11 6 14 16l35 61
q9 19 20.5 18t16.5 -20l20 -67q6 -21 18.5 -24t26.5 14l47 53q12 15 23 12.5t12 -22.5l4 -72q1 -21 14.5 -26.5t28.5 7.5l57 44q15 12 24 5.5t7 -26.5l-10 -70q-1 -20 10.5 -27.5t28.5 1.5l63 33q19 8 26.5 0t0.5 -29l-23 -64q-6 -20 3 -30t28 -4l70 14q20 6 26.5 -2
t-4.5 -27l-37 -59q-12 -17 -5.5 -29.5t26.5 -11.5l72 4q21 0 25 -11t-9 -24l-49 -53q-14 -13 -10.5 -26.5t24.5 -16.5l70 -12q43 -10 6 -39l-57 -39q-16 -10 -15 -24t21 -21l63 -27q12 -5 16.5 -12t0 -13.5t-16.5 -11.5zM745 336q106 0 212.5 65t183.5 162t125.5 212
t48.5 214q0 63 -41 101q24 -38 24 -84q0 -100 -47.5 -215.5t-126.5 -215.5q-85 -105 -188.5 -168t-212.5 -63q-59 0 -100 18q42 -26 122 -26z" />
    <glyph glyph-name="grave" unicode="`" horiz-adv-x="757" 
d="M1526 752q-20 -7 -21 -22t15 -25l57 -41q11 -7 14.5 -14.5t-2 -13.5t-18.5 -9l-70 -13q-21 -3 -24.5 -16.5t10.5 -28.5l49 -49q13 -14 9 -24.5t-25 -10.5l-72 4q-20 0 -26.5 -11.5t5.5 -28.5l37 -62q10 -17 4 -25.5t-26 -5.5l-70 19q-18 6 -27.5 -5t-3.5 -30l23 -68
q8 -19 0 -26t-27 2l-63 31q-17 9 -28.5 1t-10.5 -30l10 -68q1 -21 -7.5 -25.5t-23.5 7.5l-57 43q-15 12 -28.5 5.5t-14.5 -26.5l-4 -69q-1 -20 -12 -23.5t-23 10.5l-47 56q-13 14 -26 12t-19 -22l-20 -68q-3 -13 -9.5 -18t-14 -1t-13.5 15l-35 61q-9 19 -22 19t-25 -19
l-31 -61q-6 -11 -13.5 -15t-14 1t-9.5 18l-20 68q-6 20 -19 22t-26 -12l-47 -56q-12 -14 -22 -10.5t-13 23.5l-4 69q-2 20 -15 26.5t-30 -5.5l-54 -43q-17 -13 -26.5 -8t-5.5 26l10 68q1 22 -10.5 30t-30.5 -1l-62 -31q-19 -9 -26.5 -2t0.5 26l22 68q8 19 -1.5 30t-28.5 5
l-70 -19q-20 -3 -26.5 5.5t3.5 25.5l39 62q11 17 4.5 28.5t-26.5 11.5l-72 -4q-21 0 -25 10.5t9 24.5l51 49q13 15 9 28.5t-25 16.5l-68 13q-21 4 -23.5 15.5t15.5 21.5l57 41q2 1 3.5 2.5l3 3l2.5 2.5t2 3l1 1q19 16 37 -12l33 -64q6 -12 13 -15.5t13.5 2t10.5 17.5l18 70
q6 19 19.5 21t25.5 -13l48 -53q14 -15 23 -11.5t11 23.5l4 70q3 20 15.5 25t27.5 -7l58 -43q17 -12 25.5 -7t4.5 25l-8 70q-3 20 8.5 28t28.5 -1l64 -29q19 -9 26.5 -1.5t1.5 26.5l-22 67q-8 19 0.5 29t27.5 4l15 -2q40 -77 70 -202.5t30 -217.5q-15 -18 -34.5 -27.5
t-59.5 -9.5h-8q0 46 -33 72q18 -21 18 -55v-15q-32 3 -32 39q0 43 -28 72t-77 29q-41 0 -68.5 -32t-27.5 -79q0 -60 49.5 -96.5t138.5 -36.5q85 0 172 42t156.5 112t125 154.5t86 175.5t30.5 169q0 59 -36.5 98t-94.5 39q-48 0 -85.5 -33.5t-37.5 -84.5q0 -106 119 -119
q-29 -119 -60 -174q-12 96 -43.5 178t-75.5 129q91 -120 107 -330l-29 -41q0 156 -51 287t-131 172q-5 9 2 18.5t22 12.5l70 12q19 3 21 13.5t-15 21.5l-59 39q-15 13 -13.5 26.5t19.5 20.5l64 28q14 4 19.5 11t0 14t-19.5 12l-64 27q-23 10 -20 29q11 6 14 16l35 61
q9 19 20.5 18t16.5 -20l20 -67q6 -21 18.5 -24t26.5 14l47 53q12 15 23 12.5t12 -22.5l4 -72q1 -21 14.5 -26.5t28.5 7.5l57 44q15 12 24 5.5t7 -26.5l-10 -70q-1 -20 10.5 -27.5t28.5 1.5l63 33q19 8 26.5 0t0.5 -29l-23 -64q-6 -20 3 -30t28 -4l70 14q20 6 26.5 -2
t-4.5 -27l-37 -59q-12 -17 -5.5 -29.5t26.5 -11.5l72 4q21 0 25 -11t-9 -24l-49 -53q-14 -13 -10.5 -26.5t24.5 -16.5l70 -12q43 -10 6 -39l-57 -39q-16 -10 -15 -24t21 -21l63 -27q12 -5 16.5 -12t0 -13.5t-16.5 -11.5zM745 336q106 0 212.5 65t183.5 162t125.5 212
t48.5 214q0 63 -41 101q24 -38 24 -84q0 -100 -47.5 -215.5t-126.5 -215.5q-85 -105 -188.5 -168t-212.5 -63q-59 0 -100 18q42 -26 122 -26z" />
    <glyph glyph-name="a" unicode="a" 
d="M1257 569q33 -3 68 -28t47 -54q-64 -112 -128.5 -199t-140.5 -161t-162.5 -114t-176.5 -40q-60 0 -106.5 17.5t-70.5 42.5t-39.5 50t-19.5 43l-4 17q-6 -7 -16.5 -18.5t-44.5 -40.5t-69.5 -51.5t-88 -41t-102.5 -18.5q-111 0 -171.5 76.5t-60.5 192.5q0 58 15 139.5
t44 177.5t77.5 189.5t108.5 170t144 124t177 47.5q56 0 101.5 -17t70.5 -41.5t42.5 -49t22.5 -41.5l6 -17l383 139l-254 -627q-26 -66 -40.5 -115.5t-17.5 -77t2.5 -43.5t14 -21t21.5 -5q63 0 161 104.5t207 290.5zM354 233q32 0 65 15t57 37t44 44t30 37l11 15l133 328
q0 5 -0.5 12.5t-6 27t-14 34.5t-27.5 27.5t-44 12.5q-57 0 -116.5 -61.5t-101.5 -146.5t-68.5 -170t-26.5 -136q0 -76 65 -76z" />
    <glyph glyph-name="b" unicode="b" horiz-adv-x="1134" 
d="M1174 569q32 -3 67 -28t47 -54q-42 -74 -88.5 -128.5t-111 -101t-151 -71.5t-192.5 -26q-172 -187 -419 -187q-160 0 -248 79.5t-93 236t89 389.5l319 790h326l-205 -505q4 5 12 13.5t35 30.5t56 39t74 30.5t91 13.5q111 0 175.5 -66.5t64.5 -173.5q0 -90 -41 -246
t-125 -297q110 21 183.5 89t134.5 173zM594 823q-60 0 -123 -66t-63 -173q0 -75 38 -136t105 -98q56 94 95.5 213.5t39.5 167.5q0 38 -21.5 65t-70.5 27zM358 186q53 0 105 52q-111 65 -160 178q-12 -43 -17 -80.5t-2.5 -73t21.5 -56t53 -20.5z" />
    <glyph glyph-name="c" unicode="c" horiz-adv-x="1048" 
d="M1087 569q33 -3 68 -28t47 -54q-45 -79 -97 -148.5t-125.5 -138.5t-154.5 -117.5t-186 -79t-219 -30.5q-209 0 -315.5 96t-106.5 267q0 70 18 151t52 166t89 163t123.5 139.5t161.5 98t197 36.5q147 0 233.5 -66t95 -188.5t-76.5 -296.5h-326q102 210 101 259
q-1 33 -41 33q-62 0 -123.5 -59t-103 -141.5t-67.5 -166t-26 -136.5q0 -47 21.5 -79.5t56.5 -47.5t66.5 -21t64.5 -6q159 0 313 103t260 292z" />
    <glyph glyph-name="d" unicode="d" horiz-adv-x="1216" 
d="M1255 569q33 -3 68 -28t47 -54q-51 -89 -101 -161.5t-110 -139.5t-120.5 -113t-131.5 -73t-143 -27q-60 0 -107 17.5t-71.5 42.5t-40 50t-19.5 43l-4 17q-6 -7 -16.5 -18.5t-44.5 -40.5t-70 -51.5t-88.5 -41t-103.5 -18.5q-110 0 -171 77t-61 190q0 72 22.5 175.5
t71 221.5t113.5 219t160.5 167.5t202.5 66.5q55 0 99.5 -17t70 -41.5t42.5 -49t23 -41.5l6 -17l221 544h326l-418 -1032q-27 -67 -41.5 -116.5t-17 -76.5t3.5 -43.5t14.5 -21t20.5 -4.5q63 0 161 104.5t207 290.5zM352 233q32 0 65.5 15t57.5 37t44 44t30 37l10 15l133 328
q0 5 -0.5 12.5t-6 27t-14 34.5t-27.5 27.5t-44 12.5q-57 0 -116.5 -61.5t-101.5 -146.5t-68.5 -170t-26.5 -136q0 -76 65 -76z" />
    <glyph glyph-name="e" unicode="e" horiz-adv-x="1046" 
d="M1085 569q33 -3 68 -28t47 -54q-45 -79 -97 -148.5t-125.5 -138.5t-154.5 -117.5t-186 -79t-219 -30.5q-209 0 -315.5 96t-106.5 267q0 70 18 150.5t51.5 165.5t89 163t124 139.5t163 98.5t199.5 37q89 0 162.5 -28.5t122 -84.5t54 -139.5t-41.5 -194.5
q-27 -58 -62 -102.5t-87.5 -82t-119.5 -56t-157.5 -25.5t-202.5 10q-1 -4 -2.5 -12t-2.5 -30t2 -42t16 -44.5t34.5 -42.5t61 -30t92.5 -12q161 0 315 103t260 292zM625 829q-43 0 -85 -27.5t-72.5 -66.5t-54.5 -78t-36 -67l-12 -27q39 -7 73 -7t59.5 5.5t47.5 17t37.5 25
t29.5 32.5t23.5 36.5t19.5 40.5q11 26 16.5 44.5t5 36t-13.5 26.5t-38 9z" />
    <glyph glyph-name="f" unicode="f" horiz-adv-x="892" 
d="M932 569q33 -3 68 -28t47 -54q-234 -425 -656 -411q4 -58 -4 -119q-28 -211 -129 -379q-138 -221 -348 -221q-156 0 -212 114t19 312l570 1415q92 233 202.5 333.5t262.5 100.5q65 0 114.5 -20.5t78 -55.5t43 -81t14 -96.5t-14.5 -102.5q-77 -296 -252 -614
q-34 -63 -62 -104.5t-66 -79t-82.5 -59t-105.5 -35t-140 -15.5l-37 -88q74 -66 178 -66q162 0 284.5 84.5t227.5 269.5zM774 1384q-85 0 -199 -282l-237 -586q72 10 114 54t103 155q165 308 229 522q38 137 -10 137zM231 -33q29 140 -49 164l-188 -465q-12 -33 -18 -54
t-5 -33t7 -16.5t18 -4.5q43 -1 83.5 42.5t70 112.5t49 131.5t32.5 122.5z" />
    <glyph glyph-name="g" unicode="g" horiz-adv-x="1198" 
d="M1237 569q33 -3 68 -28t47 -54q-61 -107 -128.5 -194.5t-128.5 -147t-136 -111.5t-135.5 -85t-143.5 -72q-31 -76 -45 -117q-28 -68 -56 -121t-69 -109t-86.5 -93t-108 -60.5t-133.5 -23.5q-124 0 -189 64.5t-65 160.5q1 67 38 126.5t85.5 96t110.5 66.5q16 7 112.5 50
t122.5 58l56 140q-5 -6 -13 -15.5t-35 -34t-55 -43t-69.5 -34t-81.5 -15.5q-109 0 -169.5 77t-60.5 194q0 58 15.5 139t45 177t78 189t109 170t144 124t176.5 47q53 0 97 -17t68.5 -37.5t44 -48.5t24.5 -40t9 -23l383 139l-401 -985q146 74 256.5 188t218.5 303zM354 233
q32 0 64.5 15t56.5 37t44 44t30 37l10 15l133 328q0 5 -0.5 12.5t-6 27t-14 34.5t-26.5 27.5t-43 12.5q-57 0 -116.5 -61.5t-101.5 -146.5t-68.5 -170t-26.5 -136q0 -76 65 -76zM86 -399q0 -25 14.5 -38.5t36.5 -13.5q40 0 88.5 54.5t96.5 181.5q-25 -15 -76 -40.5
t-78 -43.5q-82 -50 -82 -100z" />
    <glyph glyph-name="h" unicode="h" horiz-adv-x="1198" 
d="M1237 569q33 -3 68 -28t47 -54q-66 -115 -131.5 -203.5t-141 -161t-161 -111t-175.5 -38.5q-81 0 -133.5 32.5t-75.5 96.5t-9 165t67 233l31 75q8 21 22 56.5t20.5 53t14.5 39.5t11 35.5t3 22.5q0 21 -16 33t-41 12q-40 0 -104.5 -38t-124.5 -107l-277 -682h-326
l594 1468h326l-207 -514q6 6 17.5 15t48 32.5t74 41.5t91.5 32.5t105 14.5q95 0 146 -48t51 -131q0 -78 -62 -231l-100 -244q-27 -68 -41.5 -117.5t-17 -77t3 -43t14 -20t20.5 -4.5q63 0 163 105t206 290z" />
    <glyph glyph-name="i" unicode="i" horiz-adv-x="616" 
d="M504 1149q-74 0 -127 53.5t-53 126.5q0 75 52.5 126.5t127.5 51.5q73 0 126.5 -52t53.5 -126q0 -72 -54 -126t-126 -54zM655 569q33 -3 68 -28t47 -54q-294 -514 -598 -514q-57 0 -103.5 18t-79 58.5t-45 99.5t1.5 147t58 196l232 571h325l-252 -627
q-27 -67 -41.5 -116.5t-17.5 -76.5t2.5 -43.5t14 -21t20.5 -4.5q63 0 162 105t206 290z" />
    <glyph glyph-name="j" unicode="j" horiz-adv-x="675" 
d="M582 1149q-74 0 -126.5 53.5t-52.5 126.5q0 75 52 126.5t127 51.5q73 0 126.5 -52t53.5 -126q0 -72 -54 -126t-126 -54zM715 569q32 -3 67 -28t47 -54q-61 -107 -128.5 -194.5t-128 -147t-135.5 -111.5t-134.5 -85t-142.5 -72q-33 -80 -47 -117q-28 -68 -56 -121
t-69 -109t-86.5 -93t-108 -60.5t-133.5 -23.5q-125 0 -189.5 65t-64.5 160q1 52 22 99t56.5 83t74 62t81.5 45q33 16 122 55t113 53l217 535q-19 15 -32.5 29.5t-17.5 22.5l-3 7q39 68 105.5 187.5t115 208.5t53.5 98h328l-399 -985q145 74 255 187.5t218 303.5zM-438 -399
q0 -25 16 -38.5t37 -13.5q39 0 86.5 54.5t95.5 181.5q-24 -14 -74.5 -40t-78.5 -44q-82 -51 -82 -100z" />
    <glyph glyph-name="k" unicode="k" horiz-adv-x="1144" 
d="M1184 569q32 -3 67 -28t47 -54q-50 -86 -118 -171.5t-152.5 -164.5t-184 -128.5t-192.5 -49.5q-144 0 -235 111t-78 281q6 72 26.5 98t59.5 26q25 0 42 1.5t47.5 11.5t53.5 28t50 55t47 89q24 69 24 102q0 51 -49 51q-44 0 -104.5 -36.5t-126.5 -108.5l-277 -682h-326
l594 1468h326l-207 -514q6 6 18 15t48.5 32.5t73.5 41.5t90.5 32.5t103.5 14.5q95 0 147 -48t52 -124q0 -101 -93 -295q-55 -107 -139 -173t-178 -73q-10 -212 107 -203q90 5 213.5 113t222.5 282z" />
    <glyph glyph-name="l" unicode="l" horiz-adv-x="616" 
d="M655 569q33 -3 68 -28t47 -54q-294 -514 -598 -514q-57 0 -103.5 18t-79 58.5t-45 99.5t1.5 147t58 196l395 976h326l-416 -1032q-27 -67 -41.5 -116.5t-17.5 -76.5t2.5 -43.5t14 -21t20.5 -4.5q63 0 162 105t206 290z" />
    <glyph glyph-name="m" unicode="m" horiz-adv-x="1781" 
d="M1821 569q32 -3 67 -28t47 -54q-66 -114 -130.5 -201.5t-140.5 -161t-161 -112.5t-174 -39q-81 0 -134.5 31.5t-78 94.5t-10.5 165t68 236l28 75q72 177 72 207q0 21 -14.5 33t-38.5 12q-41 0 -106 -38t-126 -105l-274 -684h-328q1 2 234 575q71 177 71 209
q0 20 -15.5 31.5t-39.5 11.5q-40 0 -104.5 -38t-124.5 -107l-277 -682h-326l431 1063l282 -109q8 8 34 26t71.5 45t107.5 46t121 19q94 0 145.5 -48.5t53.5 -128.5q23 23 57.5 49t86 57t115.5 51t126 20q96 0 147 -48.5t51 -130.5q0 -73 -61 -231l-100 -244
q-27 -68 -41.5 -117.5t-17 -77t3 -43t14 -20t20.5 -4.5q63 0 162 104.5t207 290.5z" />
    <glyph glyph-name="n" unicode="n" horiz-adv-x="1198" 
d="M1237 569q33 -3 68 -28t47 -54q-65 -114 -130.5 -202t-141 -161t-161 -112t-174.5 -39q-81 0 -134.5 32t-77.5 95.5t-10 165t67 234.5l31 75q71 178 71 207q0 21 -15.5 33t-39.5 12q-40 0 -104.5 -38t-124.5 -107l-277 -682h-326l431 1063l282 -109q8 8 34 26t71 45
t108 46t123 19q95 0 146 -48t51 -131q0 -78 -62 -231l-100 -244q-27 -68 -41.5 -117.5t-17 -77t3 -43t14 -20t20.5 -4.5q63 0 163 105t206 290z" />
    <glyph glyph-name="o" unicode="o" horiz-adv-x="1177" 
d="M1217 569q32 -3 67 -28t47 -54q-87 -149 -221 -236t-285 -75q-174 -203 -428 -203q-187 0 -290 105.5t-103 283.5q0 85 23.5 181t75.5 193.5t124.5 176t179.5 128t232 49.5q185 0 285 -100.5t100 -280.5q0 -186 -92 -375q162 26 285 235zM395 186q69 0 146 101
q-45 48 -45 114q0 70 50 118.5t124 45.5q45 124 45 205q0 54 -22.5 80.5t-57.5 26.5q-57 0 -117.5 -69.5t-103.5 -165t-71 -192.5t-28 -155q0 -50 21.5 -79.5t58.5 -29.5z" />
    <glyph glyph-name="p" unicode="p" horiz-adv-x="1144" 
d="M1184 569q32 -3 67 -28t47 -54q-61 -108 -134.5 -196t-167 -162t-211 -115t-246.5 -41q-72 0 -133 13t-96 31.5t-60 37.5t-34 32l-9 13l104 97q31 -43 68 -43q54 0 129.5 108t129.5 249t54 232q0 86 -63 86q-54 0 -116.5 -48.5t-115.5 -123.5l-430 -1063h-325l594 1469
l288 -88q4 5 12.5 12.5t35.5 27.5t55.5 35t72 27.5t86.5 12.5q119 0 177.5 -81.5t58.5 -203.5q0 -92 -32.5 -202.5t-80 -203t-91 -161t-73.5 -103.5q129 58 232.5 158t206.5 276z" />
    <glyph glyph-name="q" unicode="q" horiz-adv-x="1251" 
d="M1290 569q33 -3 68 -28t47 -54q-228 -400 -459 -467q40 -81 12 -208q-18 -86 -51.5 -163t-85 -144.5t-127.5 -107.5t-166 -40q-162 0 -221.5 114t15.5 312l110 274q-115 -84 -227 -84q-113 0 -174 79t-58 202q1 50 12 116.5t34.5 146.5t56 159.5t80 154.5t102.5 132.5
t127.5 92t151.5 34.5q54 0 99 -17t69.5 -37t44 -49t24 -40t8.5 -23l381 139l-364 -903q62 -16 129.5 11.5t131 90t120 138t110.5 169.5zM356 233q38 0 76 20.5t66 50t42.5 47.5t20.5 28l135 330q0 7 -3 21.5t-11 37.5t-28.5 39t-49.5 16q-57 0 -116 -60.5t-100.5 -144
t-68 -167t-28.5 -134.5q-3 -84 65 -84zM801 -166q19 51 11 87.5t-28 56.5t-49 28l-137 -340q-13 -34 -18.5 -54t-4.5 -32.5t8 -17t21 -4.5q34 -1 63 19.5t54 65.5t41 85t39 106z" />
    <glyph glyph-name="r" unicode="r" horiz-adv-x="909" 
d="M154 487q-33 3 -68 28t-47 54q72 127 162 328q-32 34 -48 62t-16 63q0 74 62.5 147t130.5 95l133 -74l-66 -164q20 -18 66.5 -48.5t89 -60.5t85.5 -66.5t69 -80t26 -86.5q0 -39 -24 -102l-58 -146q-27 -65 -40.5 -114.5t-14.5 -77t5.5 -44t15 -21.5t18.5 -5
q42 0 117.5 95.5t195.5 299.5q33 -3 68 -28t47 -54q-54 -93 -96.5 -159t-99 -138t-108 -116t-115 -72.5t-128.5 -28.5q-51 0 -95 15t-80 51t-53 89.5t-6.5 138t52.5 188.5l65 166q19 49 19 71q0 19 -16.5 42.5t-31 36.5t-53.5 46q-75 -175 -163 -330z" />
    <glyph glyph-name="s" unicode="s" horiz-adv-x="841" 
d="M154 487q-33 3 -68 28t-47 54q63 107 149.5 273.5t143.5 292.5l282 -72q-24 -129 -26.5 -274t8 -298t10.5 -167q0 -69 -10 -111q80 63 147 147.5t138 208.5q32 -3 67 -28t47 -54q-49 -88 -97 -157.5t-113 -138.5t-134.5 -115t-159.5 -74.5t-190 -28.5q-68 0 -128.5 14
t-95.5 30.5t-66 41t-39 33.5t-16 20l-1 1l180 112q25 -28 64 -28q53 0 79.5 56t26.5 198q0 25 -3 142.5t-1 176.5q-121 -237 -147 -283z" />
    <glyph glyph-name="t" unicode="t" horiz-adv-x="651" 
d="M690 569q33 -3 68 -28t47 -54q-294 -514 -619 -514q-62 0 -111 18.5t-83 59t-46.5 100t1.5 147t57 194.5l232 571h-170l67 164h168l98 241h326l-98 -241h164l-68 -164h-162l-252 -627q-28 -67 -41.5 -116.5t-15 -76.5t6 -43.5t18 -21t26.5 -4.5q75 0 175.5 103.5
t211.5 291.5z" />
    <glyph glyph-name="u" unicode="u" horiz-adv-x="1175" 
d="M1214 569q33 -3 68 -28t47 -54q-62 -109 -127.5 -197t-140.5 -161.5t-159.5 -114.5t-168.5 -41q-90 0 -152 46t-79 139q-157 -185 -332 -185q-57 0 -103 18t-78.5 58.5t-45.5 99.5t1 147t58 196l231 571h326l-252 -627q-24 -59 -37 -102.5t-16 -68t2.5 -39t14 -19
t22.5 -4.5q57 0 119 74t163 243l220 543h325l-252 -627q-27 -65 -41 -114t-16.5 -76.5t3 -44.5t15 -22t23.5 -5q64 0 158 102t204 293z" />
    <glyph glyph-name="v" unicode="v" horiz-adv-x="1046" 
d="M1085 569q33 -3 68 -28t47 -54q-53 -93 -116 -159.5t-141 -106.5t-164.5 -38.5t-186.5 42.5q-3 -3 -9.5 -9t-34.5 -27.5t-65 -45.5t-105 -63t-151 -80h-319l233 1063h320l-176 -803q396 296 510 803l260 27q-67 -404 -338 -732q196 -81 368 211z" />
    <glyph glyph-name="w" unicode="w" horiz-adv-x="1675" 
d="M1714 569q33 -3 68 -28t47 -54q-102 -177 -265 -261.5t-345 -28.5q-208 -224 -457 -224q-109 0 -175 46.5t-81 138.5q-160 -185 -334 -185q-57 0 -102.5 17.5t-78.5 57t-46 98.5t1 148t58 198l232 571h325l-252 -627q-24 -60 -37 -103.5t-15.5 -68t3 -39t14 -18.5
t21.5 -4q57 0 120.5 74.5t164.5 244.5l217 541h325l-254 -627q-23 -59 -36 -102t-16.5 -68t1 -39.5t13 -19t22.5 -4.5q72 0 168 104q-27 46 -27 94q0 77 57.5 125.5t135.5 36.5q100 220 162 500l278 27q-102 -477 -297 -754q101 -22 202.5 36.5t182.5 196.5z" />
    <glyph glyph-name="x" unicode="x" horiz-adv-x="1134" 
d="M154 487q-33 3 -68 28t-47 54q20 34 54 94.5t54.5 95.5t53 85.5t57 81t60 65.5t68.5 54t75.5 32t87.5 13q111 0 166 -68.5t55 -194.5l262 275l127 -117l-414 -430q-3 -21 -12 -75t-12.5 -80t-7.5 -63t-4 -63q0 -100 61 -100q72 0 188 111t216 284q32 -3 67 -28t47 -54
q-60 -106 -128 -194.5t-148 -162t-171.5 -115.5t-183.5 -42q-105 0 -171 57t-83 173l-194 -203h-236l449 463q4 31 12.5 91.5t13.5 96.5t9 80.5t4 73.5q0 30 -5.5 42.5t-23.5 12.5q-17 0 -36 -11.5t-40 -36t-39 -48.5t-42.5 -64.5t-40 -68t-41.5 -75t-39 -69.5z" />
    <glyph glyph-name="y" unicode="y" horiz-adv-x="1157" 
d="M1196 569q33 -3 68 -28t47 -54q-61 -107 -128.5 -194.5t-128 -147t-135.5 -112t-135 -85t-143 -71.5q-31 -76 -47 -117q-28 -68 -56 -121t-69 -109t-86.5 -93t-108 -60.5t-133.5 -23.5q-124 0 -189 65t-63 160q1 68 39 128.5t86.5 97.5t106.5 63q33 16 122 55t113 53
l52 125q-4 -5 -11 -13.5t-31.5 -30.5t-51.5 -39t-69 -30.5t-85 -13.5q-42 0 -79 12.5t-68 38t-49.5 68t-23 98t11 133.5t52.5 169l232 571h325l-252 -627q-24 -59 -37 -102.5t-16 -68t2.5 -39t14 -19t22.5 -4.5q57 0 120.5 75.5t162.5 245.5l219 539h325l-401 -985
q146 74 256.5 188t218.5 303zM43 -393q0 -24 15 -40t40 -16q40 0 88 54.5t95 179.5q-19 -9 -53 -24t-58 -27t-49 -27q-78 -48 -78 -100z" />
    <glyph glyph-name="z" unicode="z" horiz-adv-x="1085" 
d="M154 487q-33 3 -68 28t-47 54q31 53 66.5 122t58.5 113t52.5 94.5t56 81.5t61 58.5t76.5 39.5t94 12t123.5 -14.5t126 -28t129 -12t143.5 27.5l107 -141l-601 -547q40 -6 129 -48t146 -42q69 0 145.5 59.5t171.5 224.5q33 -3 68 -28t47 -54q-57 -98 -103.5 -168
t-105 -139.5t-115 -112t-126.5 -68.5t-146 -26q-67 0 -130 20t-104.5 40.5t-85.5 33.5t-94.5 -2t-111.5 -65l-107 141l639 578q-10 2 -92 26.5t-133 24.5q-70 0 -119.5 -53t-150.5 -230z" />
    <glyph glyph-name="braceleft" unicode="{" horiz-adv-x="983" 
d="M1526 752q-20 -7 -21 -22t15 -25l57 -41q11 -7 14.5 -14.5t-2 -13.5t-18.5 -9l-70 -13q-21 -3 -24.5 -16.5t10.5 -28.5l49 -49q13 -14 9 -24.5t-25 -10.5l-72 4q-20 0 -26.5 -11.5t5.5 -28.5l37 -62q10 -17 4 -25.5t-26 -5.5l-70 19q-18 6 -27.5 -5t-3.5 -30l23 -68
q8 -19 0 -26t-27 2l-63 31q-17 9 -28.5 1t-10.5 -30l10 -68q1 -21 -7.5 -25.5t-23.5 7.5l-57 43q-15 12 -28.5 5.5t-14.5 -26.5l-4 -69q-1 -20 -12 -23.5t-23 10.5l-47 56q-13 14 -26 12t-19 -22l-20 -68q-3 -13 -9.5 -18t-14 -1t-13.5 15l-35 61q-9 19 -22 19t-25 -19
l-31 -61q-6 -11 -13.5 -15t-14 1t-9.5 18l-20 68q-6 20 -19 22t-26 -12l-47 -56q-12 -14 -22 -10.5t-13 23.5l-4 69q-2 20 -15 26.5t-30 -5.5l-54 -43q-17 -13 -26.5 -8t-5.5 26l10 68q1 22 -10.5 30t-30.5 -1l-62 -31q-19 -9 -26.5 -2t0.5 26l22 68q8 19 -1.5 30t-28.5 5
l-70 -19q-20 -3 -26.5 5.5t3.5 25.5l39 62q11 17 4.5 28.5t-26.5 11.5l-72 -4q-21 0 -25 10.5t9 24.5l51 49q13 15 9 28.5t-25 16.5l-68 13q-21 4 -23.5 15.5t15.5 21.5l57 41q2 1 3.5 2.5l3 3l2.5 2.5t2 3l1 1q19 16 37 -12l33 -64q6 -12 13 -15.5t13.5 2t10.5 17.5l18 70
q6 19 19.5 21t25.5 -13l48 -53q14 -15 23 -11.5t11 23.5l4 70q3 20 15.5 25t27.5 -7l58 -43q17 -12 25.5 -7t4.5 25l-8 70q-3 20 8.5 28t28.5 -1l64 -29q19 -9 26.5 -1.5t1.5 26.5l-22 67q-8 19 0.5 29t27.5 4l15 -2q40 -77 70 -202.5t30 -217.5q-15 -18 -34.5 -27.5
t-59.5 -9.5h-8q0 46 -33 72q18 -21 18 -55v-15q-32 3 -32 39q0 43 -28 72t-77 29q-41 0 -68.5 -32t-27.5 -79q0 -60 49.5 -96.5t138.5 -36.5q85 0 172 42t156.5 112t125 154.5t86 175.5t30.5 169q0 59 -36.5 98t-94.5 39q-48 0 -85.5 -33.5t-37.5 -84.5q0 -106 119 -119
q-29 -119 -60 -174q-12 96 -43.5 178t-75.5 129q91 -120 107 -330l-29 -41q0 156 -51 287t-131 172q-5 9 2 18.5t22 12.5l70 12q19 3 21 13.5t-15 21.5l-59 39q-15 13 -13.5 26.5t19.5 20.5l64 28q14 4 19.5 11t0 14t-19.5 12l-64 27q-23 10 -20 29q11 6 14 16l35 61
q9 19 20.5 18t16.5 -20l20 -67q6 -21 18.5 -24t26.5 14l47 53q12 15 23 12.5t12 -22.5l4 -72q1 -21 14.5 -26.5t28.5 7.5l57 44q15 12 24 5.5t7 -26.5l-10 -70q-1 -20 10.5 -27.5t28.5 1.5l63 33q19 8 26.5 0t0.5 -29l-23 -64q-6 -20 3 -30t28 -4l70 14q20 6 26.5 -2
t-4.5 -27l-37 -59q-12 -17 -5.5 -29.5t26.5 -11.5l72 4q21 0 25 -11t-9 -24l-49 -53q-14 -13 -10.5 -26.5t24.5 -16.5l70 -12q43 -10 6 -39l-57 -39q-16 -10 -15 -24t21 -21l63 -27q12 -5 16.5 -12t0 -13.5t-16.5 -11.5zM745 336q106 0 212.5 65t183.5 162t125.5 212
t48.5 214q0 63 -41 101q24 -38 24 -84q0 -100 -47.5 -215.5t-126.5 -215.5q-85 -105 -188.5 -168t-212.5 -63q-59 0 -100 18q42 -26 122 -26z" />
    <glyph glyph-name="bar" unicode="|" horiz-adv-x="784" 
d="M1526 752q-20 -7 -21 -22t15 -25l57 -41q11 -7 14.5 -14.5t-2 -13.5t-18.5 -9l-70 -13q-21 -3 -24.5 -16.5t10.5 -28.5l49 -49q13 -14 9 -24.5t-25 -10.5l-72 4q-20 0 -26.5 -11.5t5.5 -28.5l37 -62q10 -17 4 -25.5t-26 -5.5l-70 19q-18 6 -27.5 -5t-3.5 -30l23 -68
q8 -19 0 -26t-27 2l-63 31q-17 9 -28.5 1t-10.5 -30l10 -68q1 -21 -7.5 -25.5t-23.5 7.5l-57 43q-15 12 -28.5 5.5t-14.5 -26.5l-4 -69q-1 -20 -12 -23.5t-23 10.5l-47 56q-13 14 -26 12t-19 -22l-20 -68q-3 -13 -9.5 -18t-14 -1t-13.5 15l-35 61q-9 19 -22 19t-25 -19
l-31 -61q-6 -11 -13.5 -15t-14 1t-9.5 18l-20 68q-6 20 -19 22t-26 -12l-47 -56q-12 -14 -22 -10.5t-13 23.5l-4 69q-2 20 -15 26.5t-30 -5.5l-54 -43q-17 -13 -26.5 -8t-5.5 26l10 68q1 22 -10.5 30t-30.5 -1l-62 -31q-19 -9 -26.5 -2t0.5 26l22 68q8 19 -1.5 30t-28.5 5
l-70 -19q-20 -3 -26.5 5.5t3.5 25.5l39 62q11 17 4.5 28.5t-26.5 11.5l-72 -4q-21 0 -25 10.5t9 24.5l51 49q13 15 9 28.5t-25 16.5l-68 13q-21 4 -23.5 15.5t15.5 21.5l57 41q2 1 3.5 2.5l3 3l2.5 2.5t2 3l1 1q19 16 37 -12l33 -64q6 -12 13 -15.5t13.5 2t10.5 17.5l18 70
q6 19 19.5 21t25.5 -13l48 -53q14 -15 23 -11.5t11 23.5l4 70q3 20 15.5 25t27.5 -7l58 -43q17 -12 25.5 -7t4.5 25l-8 70q-3 20 8.5 28t28.5 -1l64 -29q19 -9 26.5 -1.5t1.5 26.5l-22 67q-8 19 0.5 29t27.5 4l15 -2q40 -77 70 -202.5t30 -217.5q-15 -18 -34.5 -27.5
t-59.5 -9.5h-8q0 46 -33 72q18 -21 18 -55v-15q-32 3 -32 39q0 43 -28 72t-77 29q-41 0 -68.5 -32t-27.5 -79q0 -60 49.5 -96.5t138.5 -36.5q85 0 172 42t156.5 112t125 154.5t86 175.5t30.5 169q0 59 -36.5 98t-94.5 39q-48 0 -85.5 -33.5t-37.5 -84.5q0 -106 119 -119
q-29 -119 -60 -174q-12 96 -43.5 178t-75.5 129q91 -120 107 -330l-29 -41q0 156 -51 287t-131 172q-5 9 2 18.5t22 12.5l70 12q19 3 21 13.5t-15 21.5l-59 39q-15 13 -13.5 26.5t19.5 20.5l64 28q14 4 19.5 11t0 14t-19.5 12l-64 27q-23 10 -20 29q11 6 14 16l35 61
q9 19 20.5 18t16.5 -20l20 -67q6 -21 18.5 -24t26.5 14l47 53q12 15 23 12.5t12 -22.5l4 -72q1 -21 14.5 -26.5t28.5 7.5l57 44q15 12 24 5.5t7 -26.5l-10 -70q-1 -20 10.5 -27.5t28.5 1.5l63 33q19 8 26.5 0t0.5 -29l-23 -64q-6 -20 3 -30t28 -4l70 14q20 6 26.5 -2
t-4.5 -27l-37 -59q-12 -17 -5.5 -29.5t26.5 -11.5l72 4q21 0 25 -11t-9 -24l-49 -53q-14 -13 -10.5 -26.5t24.5 -16.5l70 -12q43 -10 6 -39l-57 -39q-16 -10 -15 -24t21 -21l63 -27q12 -5 16.5 -12t0 -13.5t-16.5 -11.5zM745 336q106 0 212.5 65t183.5 162t125.5 212
t48.5 214q0 63 -41 101q24 -38 24 -84q0 -100 -47.5 -215.5t-126.5 -215.5q-85 -105 -188.5 -168t-212.5 -63q-59 0 -100 18q42 -26 122 -26z" />
    <glyph glyph-name="braceright" unicode="}" horiz-adv-x="972" 
d="M1526 752q-20 -7 -21 -22t15 -25l57 -41q11 -7 14.5 -14.5t-2 -13.5t-18.5 -9l-70 -13q-21 -3 -24.5 -16.5t10.5 -28.5l49 -49q13 -14 9 -24.5t-25 -10.5l-72 4q-20 0 -26.5 -11.5t5.5 -28.5l37 -62q10 -17 4 -25.5t-26 -5.5l-70 19q-18 6 -27.5 -5t-3.5 -30l23 -68
q8 -19 0 -26t-27 2l-63 31q-17 9 -28.5 1t-10.5 -30l10 -68q1 -21 -7.5 -25.5t-23.5 7.5l-57 43q-15 12 -28.5 5.5t-14.5 -26.5l-4 -69q-1 -20 -12 -23.5t-23 10.5l-47 56q-13 14 -26 12t-19 -22l-20 -68q-3 -13 -9.5 -18t-14 -1t-13.5 15l-35 61q-9 19 -22 19t-25 -19
l-31 -61q-6 -11 -13.5 -15t-14 1t-9.5 18l-20 68q-6 20 -19 22t-26 -12l-47 -56q-12 -14 -22 -10.5t-13 23.5l-4 69q-2 20 -15 26.5t-30 -5.5l-54 -43q-17 -13 -26.5 -8t-5.5 26l10 68q1 22 -10.5 30t-30.5 -1l-62 -31q-19 -9 -26.5 -2t0.5 26l22 68q8 19 -1.5 30t-28.5 5
l-70 -19q-20 -3 -26.5 5.5t3.5 25.5l39 62q11 17 4.5 28.5t-26.5 11.5l-72 -4q-21 0 -25 10.5t9 24.5l51 49q13 15 9 28.5t-25 16.5l-68 13q-21 4 -23.5 15.5t15.5 21.5l57 41q2 1 3.5 2.5l3 3l2.5 2.5t2 3l1 1q19 16 37 -12l33 -64q6 -12 13 -15.5t13.5 2t10.5 17.5l18 70
q6 19 19.5 21t25.5 -13l48 -53q14 -15 23 -11.5t11 23.5l4 70q3 20 15.5 25t27.5 -7l58 -43q17 -12 25.5 -7t4.5 25l-8 70q-3 20 8.5 28t28.5 -1l64 -29q19 -9 26.5 -1.5t1.5 26.5l-22 67q-8 19 0.5 29t27.5 4l15 -2q40 -77 70 -202.5t30 -217.5q-15 -18 -34.5 -27.5
t-59.5 -9.5h-8q0 46 -33 72q18 -21 18 -55v-15q-32 3 -32 39q0 43 -28 72t-77 29q-41 0 -68.5 -32t-27.5 -79q0 -60 49.5 -96.5t138.5 -36.5q85 0 172 42t156.5 112t125 154.5t86 175.5t30.5 169q0 59 -36.5 98t-94.5 39q-48 0 -85.5 -33.5t-37.5 -84.5q0 -106 119 -119
q-29 -119 -60 -174q-12 96 -43.5 178t-75.5 129q91 -120 107 -330l-29 -41q0 156 -51 287t-131 172q-5 9 2 18.5t22 12.5l70 12q19 3 21 13.5t-15 21.5l-59 39q-15 13 -13.5 26.5t19.5 20.5l64 28q14 4 19.5 11t0 14t-19.5 12l-64 27q-23 10 -20 29q11 6 14 16l35 61
q9 19 20.5 18t16.5 -20l20 -67q6 -21 18.5 -24t26.5 14l47 53q12 15 23 12.5t12 -22.5l4 -72q1 -21 14.5 -26.5t28.5 7.5l57 44q15 12 24 5.5t7 -26.5l-10 -70q-1 -20 10.5 -27.5t28.5 1.5l63 33q19 8 26.5 0t0.5 -29l-23 -64q-6 -20 3 -30t28 -4l70 14q20 6 26.5 -2
t-4.5 -27l-37 -59q-12 -17 -5.5 -29.5t26.5 -11.5l72 4q21 0 25 -11t-9 -24l-49 -53q-14 -13 -10.5 -26.5t24.5 -16.5l70 -12q43 -10 6 -39l-57 -39q-16 -10 -15 -24t21 -21l63 -27q12 -5 16.5 -12t0 -13.5t-16.5 -11.5zM745 336q106 0 212.5 65t183.5 162t125.5 212
t48.5 214q0 63 -41 101q24 -38 24 -84q0 -100 -47.5 -215.5t-126.5 -215.5q-85 -105 -188.5 -168t-212.5 -63q-59 0 -100 18q42 -26 122 -26z" />
    <glyph glyph-name="asciitilde" unicode="~" horiz-adv-x="1544" 
d="M1526 752q-20 -7 -21 -22t15 -25l57 -41q11 -7 14.5 -14.5t-2 -13.5t-18.5 -9l-70 -13q-21 -3 -24.5 -16.5t10.5 -28.5l49 -49q13 -14 9 -24.5t-25 -10.5l-72 4q-20 0 -26.5 -11.5t5.5 -28.5l37 -62q10 -17 4 -25.5t-26 -5.5l-70 19q-18 6 -27.5 -5t-3.5 -30l23 -68
q8 -19 0 -26t-27 2l-63 31q-17 9 -28.5 1t-10.5 -30l10 -68q1 -21 -7.5 -25.5t-23.5 7.5l-57 43q-15 12 -28.5 5.5t-14.5 -26.5l-4 -69q-1 -20 -12 -23.5t-23 10.5l-47 56q-13 14 -26 12t-19 -22l-20 -68q-3 -13 -9.5 -18t-14 -1t-13.5 15l-35 61q-9 19 -22 19t-25 -19
l-31 -61q-6 -11 -13.5 -15t-14 1t-9.5 18l-20 68q-6 20 -19 22t-26 -12l-47 -56q-12 -14 -22 -10.5t-13 23.5l-4 69q-2 20 -15 26.5t-30 -5.5l-54 -43q-17 -13 -26.5 -8t-5.5 26l10 68q1 22 -10.5 30t-30.5 -1l-62 -31q-19 -9 -26.5 -2t0.5 26l22 68q8 19 -1.5 30t-28.5 5
l-70 -19q-20 -3 -26.5 5.5t3.5 25.5l39 62q11 17 4.5 28.5t-26.5 11.5l-72 -4q-21 0 -25 10.5t9 24.5l51 49q13 15 9 28.5t-25 16.5l-68 13q-21 4 -23.5 15.5t15.5 21.5l57 41q2 1 3.5 2.5l3 3l2.5 2.5t2 3l1 1q19 16 37 -12l33 -64q6 -12 13 -15.5t13.5 2t10.5 17.5l18 70
q6 19 19.5 21t25.5 -13l48 -53q14 -15 23 -11.5t11 23.5l4 70q3 20 15.5 25t27.5 -7l58 -43q17 -12 25.5 -7t4.5 25l-8 70q-3 20 8.5 28t28.5 -1l64 -29q19 -9 26.5 -1.5t1.5 26.5l-22 67q-8 19 0.5 29t27.5 4l15 -2q40 -77 70 -202.5t30 -217.5q-15 -18 -34.5 -27.5
t-59.5 -9.5h-8q0 46 -33 72q18 -21 18 -55v-15q-32 3 -32 39q0 43 -28 72t-77 29q-41 0 -68.5 -32t-27.5 -79q0 -60 49.5 -96.5t138.5 -36.5q85 0 172 42t156.5 112t125 154.5t86 175.5t30.5 169q0 59 -36.5 98t-94.5 39q-48 0 -85.5 -33.5t-37.5 -84.5q0 -106 119 -119
q-29 -119 -60 -174q-12 96 -43.5 178t-75.5 129q91 -120 107 -330l-29 -41q0 156 -51 287t-131 172q-5 9 2 18.5t22 12.5l70 12q19 3 21 13.5t-15 21.5l-59 39q-15 13 -13.5 26.5t19.5 20.5l64 28q14 4 19.5 11t0 14t-19.5 12l-64 27q-23 10 -20 29q11 6 14 16l35 61
q9 19 20.5 18t16.5 -20l20 -67q6 -21 18.5 -24t26.5 14l47 53q12 15 23 12.5t12 -22.5l4 -72q1 -21 14.5 -26.5t28.5 7.5l57 44q15 12 24 5.5t7 -26.5l-10 -70q-1 -20 10.5 -27.5t28.5 1.5l63 33q19 8 26.5 0t0.5 -29l-23 -64q-6 -20 3 -30t28 -4l70 14q20 6 26.5 -2
t-4.5 -27l-37 -59q-12 -17 -5.5 -29.5t26.5 -11.5l72 4q21 0 25 -11t-9 -24l-49 -53q-14 -13 -10.5 -26.5t24.5 -16.5l70 -12q43 -10 6 -39l-57 -39q-16 -10 -15 -24t21 -21l63 -27q12 -5 16.5 -12t0 -13.5t-16.5 -11.5zM745 336q106 0 212.5 65t183.5 162t125.5 212
t48.5 214q0 63 -41 101q24 -38 24 -84q0 -100 -47.5 -215.5t-126.5 -215.5q-85 -105 -188.5 -168t-212.5 -63q-59 0 -100 18q42 -26 122 -26z" />
    <glyph glyph-name="exclamdown" unicode="&#xa1;" horiz-adv-x="792" 
d="M1526 752q-20 -7 -21 -22t15 -25l57 -41q11 -7 14.5 -14.5t-2 -13.5t-18.5 -9l-70 -13q-21 -3 -24.5 -16.5t10.5 -28.5l49 -49q13 -14 9 -24.5t-25 -10.5l-72 4q-20 0 -26.5 -11.5t5.5 -28.5l37 -62q10 -17 4 -25.5t-26 -5.5l-70 19q-18 6 -27.5 -5t-3.5 -30l23 -68
q8 -19 0 -26t-27 2l-63 31q-17 9 -28.5 1t-10.5 -30l10 -68q1 -21 -7.5 -25.5t-23.5 7.5l-57 43q-15 12 -28.5 5.5t-14.5 -26.5l-4 -69q-1 -20 -12 -23.5t-23 10.5l-47 56q-13 14 -26 12t-19 -22l-20 -68q-3 -13 -9.5 -18t-14 -1t-13.5 15l-35 61q-9 19 -22 19t-25 -19
l-31 -61q-6 -11 -13.5 -15t-14 1t-9.5 18l-20 68q-6 20 -19 22t-26 -12l-47 -56q-12 -14 -22 -10.5t-13 23.5l-4 69q-2 20 -15 26.5t-30 -5.5l-54 -43q-17 -13 -26.5 -8t-5.5 26l10 68q1 22 -10.5 30t-30.5 -1l-62 -31q-19 -9 -26.5 -2t0.5 26l22 68q8 19 -1.5 30t-28.5 5
l-70 -19q-20 -3 -26.5 5.5t3.5 25.5l39 62q11 17 4.5 28.5t-26.5 11.5l-72 -4q-21 0 -25 10.5t9 24.5l51 49q13 15 9 28.5t-25 16.5l-68 13q-21 4 -23.5 15.5t15.5 21.5l57 41q2 1 3.5 2.5l3 3l2.5 2.5t2 3l1 1q19 16 37 -12l33 -64q6 -12 13 -15.5t13.5 2t10.5 17.5l18 70
q6 19 19.5 21t25.5 -13l48 -53q14 -15 23 -11.5t11 23.5l4 70q3 20 15.5 25t27.5 -7l58 -43q17 -12 25.5 -7t4.5 25l-8 70q-3 20 8.5 28t28.5 -1l64 -29q19 -9 26.5 -1.5t1.5 26.5l-22 67q-8 19 0.5 29t27.5 4l15 -2q40 -77 70 -202.5t30 -217.5q-15 -18 -34.5 -27.5
t-59.5 -9.5h-8q0 46 -33 72q18 -21 18 -55v-15q-32 3 -32 39q0 43 -28 72t-77 29q-41 0 -68.5 -32t-27.5 -79q0 -60 49.5 -96.5t138.5 -36.5q85 0 172 42t156.5 112t125 154.5t86 175.5t30.5 169q0 59 -36.5 98t-94.5 39q-48 0 -85.5 -33.5t-37.5 -84.5q0 -106 119 -119
q-29 -119 -60 -174q-12 96 -43.5 178t-75.5 129q91 -120 107 -330l-29 -41q0 156 -51 287t-131 172q-5 9 2 18.5t22 12.5l70 12q19 3 21 13.5t-15 21.5l-59 39q-15 13 -13.5 26.5t19.5 20.5l64 28q14 4 19.5 11t0 14t-19.5 12l-64 27q-23 10 -20 29q11 6 14 16l35 61
q9 19 20.5 18t16.5 -20l20 -67q6 -21 18.5 -24t26.5 14l47 53q12 15 23 12.5t12 -22.5l4 -72q1 -21 14.5 -26.5t28.5 7.5l57 44q15 12 24 5.5t7 -26.5l-10 -70q-1 -20 10.5 -27.5t28.5 1.5l63 33q19 8 26.5 0t0.5 -29l-23 -64q-6 -20 3 -30t28 -4l70 14q20 6 26.5 -2
t-4.5 -27l-37 -59q-12 -17 -5.5 -29.5t26.5 -11.5l72 4q21 0 25 -11t-9 -24l-49 -53q-14 -13 -10.5 -26.5t24.5 -16.5l70 -12q43 -10 6 -39l-57 -39q-16 -10 -15 -24t21 -21l63 -27q12 -5 16.5 -12t0 -13.5t-16.5 -11.5zM745 336q106 0 212.5 65t183.5 162t125.5 212
t48.5 214q0 63 -41 101q24 -38 24 -84q0 -100 -47.5 -215.5t-126.5 -215.5q-85 -105 -188.5 -168t-212.5 -63q-59 0 -100 18q42 -26 122 -26z" />
    <glyph glyph-name="cent" unicode="&#xa2;" horiz-adv-x="976" 
d="M1526 752q-20 -7 -21 -22t15 -25l57 -41q11 -7 14.5 -14.5t-2 -13.5t-18.5 -9l-70 -13q-21 -3 -24.5 -16.5t10.5 -28.5l49 -49q13 -14 9 -24.5t-25 -10.5l-72 4q-20 0 -26.5 -11.5t5.5 -28.5l37 -62q10 -17 4 -25.5t-26 -5.5l-70 19q-18 6 -27.5 -5t-3.5 -30l23 -68
q8 -19 0 -26t-27 2l-63 31q-17 9 -28.5 1t-10.5 -30l10 -68q1 -21 -7.5 -25.5t-23.5 7.5l-57 43q-15 12 -28.5 5.5t-14.5 -26.5l-4 -69q-1 -20 -12 -23.5t-23 10.5l-47 56q-13 14 -26 12t-19 -22l-20 -68q-3 -13 -9.5 -18t-14 -1t-13.5 15l-35 61q-9 19 -22 19t-25 -19
l-31 -61q-6 -11 -13.5 -15t-14 1t-9.5 18l-20 68q-6 20 -19 22t-26 -12l-47 -56q-12 -14 -22 -10.5t-13 23.5l-4 69q-2 20 -15 26.5t-30 -5.5l-54 -43q-17 -13 -26.5 -8t-5.5 26l10 68q1 22 -10.5 30t-30.5 -1l-62 -31q-19 -9 -26.5 -2t0.5 26l22 68q8 19 -1.5 30t-28.5 5
l-70 -19q-20 -3 -26.5 5.5t3.5 25.5l39 62q11 17 4.5 28.5t-26.5 11.5l-72 -4q-21 0 -25 10.5t9 24.5l51 49q13 15 9 28.5t-25 16.5l-68 13q-21 4 -23.5 15.5t15.5 21.5l57 41q2 1 3.5 2.5l3 3l2.5 2.5t2 3l1 1q19 16 37 -12l33 -64q6 -12 13 -15.5t13.5 2t10.5 17.5l18 70
q6 19 19.5 21t25.5 -13l48 -53q14 -15 23 -11.5t11 23.5l4 70q3 20 15.5 25t27.5 -7l58 -43q17 -12 25.5 -7t4.5 25l-8 70q-3 20 8.5 28t28.5 -1l64 -29q19 -9 26.5 -1.5t1.5 26.5l-22 67q-8 19 0.5 29t27.5 4l15 -2q40 -77 70 -202.5t30 -217.5q-15 -18 -34.5 -27.5
t-59.5 -9.5h-8q0 46 -33 72q18 -21 18 -55v-15q-32 3 -32 39q0 43 -28 72t-77 29q-41 0 -68.5 -32t-27.5 -79q0 -60 49.5 -96.5t138.5 -36.5q85 0 172 42t156.5 112t125 154.5t86 175.5t30.5 169q0 59 -36.5 98t-94.5 39q-48 0 -85.5 -33.5t-37.5 -84.5q0 -106 119 -119
q-29 -119 -60 -174q-12 96 -43.5 178t-75.5 129q91 -120 107 -330l-29 -41q0 156 -51 287t-131 172q-5 9 2 18.5t22 12.5l70 12q19 3 21 13.5t-15 21.5l-59 39q-15 13 -13.5 26.5t19.5 20.5l64 28q14 4 19.5 11t0 14t-19.5 12l-64 27q-23 10 -20 29q11 6 14 16l35 61
q9 19 20.5 18t16.5 -20l20 -67q6 -21 18.5 -24t26.5 14l47 53q12 15 23 12.5t12 -22.5l4 -72q1 -21 14.5 -26.5t28.5 7.5l57 44q15 12 24 5.5t7 -26.5l-10 -70q-1 -20 10.5 -27.5t28.5 1.5l63 33q19 8 26.5 0t0.5 -29l-23 -64q-6 -20 3 -30t28 -4l70 14q20 6 26.5 -2
t-4.5 -27l-37 -59q-12 -17 -5.5 -29.5t26.5 -11.5l72 4q21 0 25 -11t-9 -24l-49 -53q-14 -13 -10.5 -26.5t24.5 -16.5l70 -12q43 -10 6 -39l-57 -39q-16 -10 -15 -24t21 -21l63 -27q12 -5 16.5 -12t0 -13.5t-16.5 -11.5zM745 336q106 0 212.5 65t183.5 162t125.5 212
t48.5 214q0 63 -41 101q24 -38 24 -84q0 -100 -47.5 -215.5t-126.5 -215.5q-85 -105 -188.5 -168t-212.5 -63q-59 0 -100 18q42 -26 122 -26z" />
    <glyph glyph-name="sterling" unicode="&#xa3;" horiz-adv-x="1472" 
d="M1526 752q-20 -7 -21 -22t15 -25l57 -41q11 -7 14.5 -14.5t-2 -13.5t-18.5 -9l-70 -13q-21 -3 -24.5 -16.5t10.5 -28.5l49 -49q13 -14 9 -24.5t-25 -10.5l-72 4q-20 0 -26.5 -11.5t5.5 -28.5l37 -62q10 -17 4 -25.5t-26 -5.5l-70 19q-18 6 -27.5 -5t-3.5 -30l23 -68
q8 -19 0 -26t-27 2l-63 31q-17 9 -28.5 1t-10.5 -30l10 -68q1 -21 -7.5 -25.5t-23.5 7.5l-57 43q-15 12 -28.5 5.5t-14.5 -26.5l-4 -69q-1 -20 -12 -23.5t-23 10.5l-47 56q-13 14 -26 12t-19 -22l-20 -68q-3 -13 -9.5 -18t-14 -1t-13.5 15l-35 61q-9 19 -22 19t-25 -19
l-31 -61q-6 -11 -13.5 -15t-14 1t-9.5 18l-20 68q-6 20 -19 22t-26 -12l-47 -56q-12 -14 -22 -10.5t-13 23.5l-4 69q-2 20 -15 26.5t-30 -5.5l-54 -43q-17 -13 -26.5 -8t-5.5 26l10 68q1 22 -10.5 30t-30.5 -1l-62 -31q-19 -9 -26.5 -2t0.5 26l22 68q8 19 -1.5 30t-28.5 5
l-70 -19q-20 -3 -26.5 5.5t3.5 25.5l39 62q11 17 4.5 28.5t-26.5 11.5l-72 -4q-21 0 -25 10.5t9 24.5l51 49q13 15 9 28.5t-25 16.5l-68 13q-21 4 -23.5 15.5t15.5 21.5l57 41q2 1 3.5 2.5l3 3l2.5 2.5t2 3l1 1q19 16 37 -12l33 -64q6 -12 13 -15.5t13.5 2t10.5 17.5l18 70
q6 19 19.5 21t25.5 -13l48 -53q14 -15 23 -11.5t11 23.5l4 70q3 20 15.5 25t27.5 -7l58 -43q17 -12 25.5 -7t4.5 25l-8 70q-3 20 8.5 28t28.5 -1l64 -29q19 -9 26.5 -1.5t1.5 26.5l-22 67q-8 19 0.5 29t27.5 4l15 -2q40 -77 70 -202.5t30 -217.5q-15 -18 -34.5 -27.5
t-59.5 -9.5h-8q0 46 -33 72q18 -21 18 -55v-15q-32 3 -32 39q0 43 -28 72t-77 29q-41 0 -68.5 -32t-27.5 -79q0 -60 49.5 -96.5t138.5 -36.5q85 0 172 42t156.5 112t125 154.5t86 175.5t30.5 169q0 59 -36.5 98t-94.5 39q-48 0 -85.5 -33.5t-37.5 -84.5q0 -106 119 -119
q-29 -119 -60 -174q-12 96 -43.5 178t-75.5 129q91 -120 107 -330l-29 -41q0 156 -51 287t-131 172q-5 9 2 18.5t22 12.5l70 12q19 3 21 13.5t-15 21.5l-59 39q-15 13 -13.5 26.5t19.5 20.5l64 28q14 4 19.5 11t0 14t-19.5 12l-64 27q-23 10 -20 29q11 6 14 16l35 61
q9 19 20.5 18t16.5 -20l20 -67q6 -21 18.5 -24t26.5 14l47 53q12 15 23 12.5t12 -22.5l4 -72q1 -21 14.5 -26.5t28.5 7.5l57 44q15 12 24 5.5t7 -26.5l-10 -70q-1 -20 10.5 -27.5t28.5 1.5l63 33q19 8 26.5 0t0.5 -29l-23 -64q-6 -20 3 -30t28 -4l70 14q20 6 26.5 -2
t-4.5 -27l-37 -59q-12 -17 -5.5 -29.5t26.5 -11.5l72 4q21 0 25 -11t-9 -24l-49 -53q-14 -13 -10.5 -26.5t24.5 -16.5l70 -12q43 -10 6 -39l-57 -39q-16 -10 -15 -24t21 -21l63 -27q12 -5 16.5 -12t0 -13.5t-16.5 -11.5zM745 336q106 0 212.5 65t183.5 162t125.5 212
t48.5 214q0 63 -41 101q24 -38 24 -84q0 -100 -47.5 -215.5t-126.5 -215.5q-85 -105 -188.5 -168t-212.5 -63q-59 0 -100 18q42 -26 122 -26z" />
    <glyph glyph-name="currency" unicode="&#xa4;" horiz-adv-x="1247" 
d="M1526 752q-20 -7 -21 -22t15 -25l57 -41q11 -7 14.5 -14.5t-2 -13.5t-18.5 -9l-70 -13q-21 -3 -24.5 -16.5t10.5 -28.5l49 -49q13 -14 9 -24.5t-25 -10.5l-72 4q-20 0 -26.5 -11.5t5.5 -28.5l37 -62q10 -17 4 -25.5t-26 -5.5l-70 19q-18 6 -27.5 -5t-3.5 -30l23 -68
q8 -19 0 -26t-27 2l-63 31q-17 9 -28.5 1t-10.5 -30l10 -68q1 -21 -7.5 -25.5t-23.5 7.5l-57 43q-15 12 -28.5 5.5t-14.5 -26.5l-4 -69q-1 -20 -12 -23.5t-23 10.5l-47 56q-13 14 -26 12t-19 -22l-20 -68q-3 -13 -9.5 -18t-14 -1t-13.5 15l-35 61q-9 19 -22 19t-25 -19
l-31 -61q-6 -11 -13.5 -15t-14 1t-9.5 18l-20 68q-6 20 -19 22t-26 -12l-47 -56q-12 -14 -22 -10.5t-13 23.5l-4 69q-2 20 -15 26.5t-30 -5.5l-54 -43q-17 -13 -26.5 -8t-5.5 26l10 68q1 22 -10.5 30t-30.5 -1l-62 -31q-19 -9 -26.5 -2t0.5 26l22 68q8 19 -1.5 30t-28.5 5
l-70 -19q-20 -3 -26.5 5.5t3.5 25.5l39 62q11 17 4.5 28.5t-26.5 11.5l-72 -4q-21 0 -25 10.5t9 24.5l51 49q13 15 9 28.5t-25 16.5l-68 13q-21 4 -23.5 15.5t15.5 21.5l57 41q2 1 3.5 2.5l3 3l2.5 2.5t2 3l1 1q19 16 37 -12l33 -64q6 -12 13 -15.5t13.5 2t10.5 17.5l18 70
q6 19 19.5 21t25.5 -13l48 -53q14 -15 23 -11.5t11 23.5l4 70q3 20 15.5 25t27.5 -7l58 -43q17 -12 25.5 -7t4.5 25l-8 70q-3 20 8.5 28t28.5 -1l64 -29q19 -9 26.5 -1.5t1.5 26.5l-22 67q-8 19 0.5 29t27.5 4l15 -2q40 -77 70 -202.5t30 -217.5q-15 -18 -34.5 -27.5
t-59.5 -9.5h-8q0 46 -33 72q18 -21 18 -55v-15q-32 3 -32 39q0 43 -28 72t-77 29q-41 0 -68.5 -32t-27.5 -79q0 -60 49.5 -96.5t138.5 -36.5q85 0 172 42t156.5 112t125 154.5t86 175.5t30.5 169q0 59 -36.5 98t-94.5 39q-48 0 -85.5 -33.5t-37.5 -84.5q0 -106 119 -119
q-29 -119 -60 -174q-12 96 -43.5 178t-75.5 129q91 -120 107 -330l-29 -41q0 156 -51 287t-131 172q-5 9 2 18.5t22 12.5l70 12q19 3 21 13.5t-15 21.5l-59 39q-15 13 -13.5 26.5t19.5 20.5l64 28q14 4 19.5 11t0 14t-19.5 12l-64 27q-23 10 -20 29q11 6 14 16l35 61
q9 19 20.5 18t16.5 -20l20 -67q6 -21 18.5 -24t26.5 14l47 53q12 15 23 12.5t12 -22.5l4 -72q1 -21 14.5 -26.5t28.5 7.5l57 44q15 12 24 5.5t7 -26.5l-10 -70q-1 -20 10.5 -27.5t28.5 1.5l63 33q19 8 26.5 0t0.5 -29l-23 -64q-6 -20 3 -30t28 -4l70 14q20 6 26.5 -2
t-4.5 -27l-37 -59q-12 -17 -5.5 -29.5t26.5 -11.5l72 4q21 0 25 -11t-9 -24l-49 -53q-14 -13 -10.5 -26.5t24.5 -16.5l70 -12q43 -10 6 -39l-57 -39q-16 -10 -15 -24t21 -21l63 -27q12 -5 16.5 -12t0 -13.5t-16.5 -11.5zM745 336q106 0 212.5 65t183.5 162t125.5 212
t48.5 214q0 63 -41 101q24 -38 24 -84q0 -100 -47.5 -215.5t-126.5 -215.5q-85 -105 -188.5 -168t-212.5 -63q-59 0 -100 18q42 -26 122 -26z" />
    <glyph glyph-name="yen" unicode="&#xa5;" horiz-adv-x="1097" 
d="M1526 752q-20 -7 -21 -22t15 -25l57 -41q11 -7 14.5 -14.5t-2 -13.5t-18.5 -9l-70 -13q-21 -3 -24.5 -16.5t10.5 -28.5l49 -49q13 -14 9 -24.5t-25 -10.5l-72 4q-20 0 -26.5 -11.5t5.5 -28.5l37 -62q10 -17 4 -25.5t-26 -5.5l-70 19q-18 6 -27.5 -5t-3.5 -30l23 -68
q8 -19 0 -26t-27 2l-63 31q-17 9 -28.5 1t-10.5 -30l10 -68q1 -21 -7.5 -25.5t-23.5 7.5l-57 43q-15 12 -28.5 5.5t-14.5 -26.5l-4 -69q-1 -20 -12 -23.5t-23 10.5l-47 56q-13 14 -26 12t-19 -22l-20 -68q-3 -13 -9.5 -18t-14 -1t-13.5 15l-35 61q-9 19 -22 19t-25 -19
l-31 -61q-6 -11 -13.5 -15t-14 1t-9.5 18l-20 68q-6 20 -19 22t-26 -12l-47 -56q-12 -14 -22 -10.5t-13 23.5l-4 69q-2 20 -15 26.5t-30 -5.5l-54 -43q-17 -13 -26.5 -8t-5.5 26l10 68q1 22 -10.5 30t-30.5 -1l-62 -31q-19 -9 -26.5 -2t0.5 26l22 68q8 19 -1.5 30t-28.5 5
l-70 -19q-20 -3 -26.5 5.5t3.5 25.5l39 62q11 17 4.5 28.5t-26.5 11.5l-72 -4q-21 0 -25 10.5t9 24.5l51 49q13 15 9 28.5t-25 16.5l-68 13q-21 4 -23.5 15.5t15.5 21.5l57 41q2 1 3.5 2.5l3 3l2.5 2.5t2 3l1 1q19 16 37 -12l33 -64q6 -12 13 -15.5t13.5 2t10.5 17.5l18 70
q6 19 19.5 21t25.5 -13l48 -53q14 -15 23 -11.5t11 23.5l4 70q3 20 15.5 25t27.5 -7l58 -43q17 -12 25.5 -7t4.5 25l-8 70q-3 20 8.5 28t28.5 -1l64 -29q19 -9 26.5 -1.5t1.5 26.5l-22 67q-8 19 0.5 29t27.5 4l15 -2q40 -77 70 -202.5t30 -217.5q-15 -18 -34.5 -27.5
t-59.5 -9.5h-8q0 46 -33 72q18 -21 18 -55v-15q-32 3 -32 39q0 43 -28 72t-77 29q-41 0 -68.5 -32t-27.5 -79q0 -60 49.5 -96.5t138.5 -36.5q85 0 172 42t156.5 112t125 154.5t86 175.5t30.5 169q0 59 -36.5 98t-94.5 39q-48 0 -85.5 -33.5t-37.5 -84.5q0 -106 119 -119
q-29 -119 -60 -174q-12 96 -43.5 178t-75.5 129q91 -120 107 -330l-29 -41q0 156 -51 287t-131 172q-5 9 2 18.5t22 12.5l70 12q19 3 21 13.5t-15 21.5l-59 39q-15 13 -13.5 26.5t19.5 20.5l64 28q14 4 19.5 11t0 14t-19.5 12l-64 27q-23 10 -20 29q11 6 14 16l35 61
q9 19 20.5 18t16.5 -20l20 -67q6 -21 18.5 -24t26.5 14l47 53q12 15 23 12.5t12 -22.5l4 -72q1 -21 14.5 -26.5t28.5 7.5l57 44q15 12 24 5.5t7 -26.5l-10 -70q-1 -20 10.5 -27.5t28.5 1.5l63 33q19 8 26.5 0t0.5 -29l-23 -64q-6 -20 3 -30t28 -4l70 14q20 6 26.5 -2
t-4.5 -27l-37 -59q-12 -17 -5.5 -29.5t26.5 -11.5l72 4q21 0 25 -11t-9 -24l-49 -53q-14 -13 -10.5 -26.5t24.5 -16.5l70 -12q43 -10 6 -39l-57 -39q-16 -10 -15 -24t21 -21l63 -27q12 -5 16.5 -12t0 -13.5t-16.5 -11.5zM745 336q106 0 212.5 65t183.5 162t125.5 212
t48.5 214q0 63 -41 101q24 -38 24 -84q0 -100 -47.5 -215.5t-126.5 -215.5q-85 -105 -188.5 -168t-212.5 -63q-59 0 -100 18q42 -26 122 -26z" />
    <glyph glyph-name="brokenbar" unicode="&#xa6;" horiz-adv-x="784" 
d="M1526 752q-20 -7 -21 -22t15 -25l57 -41q11 -7 14.5 -14.5t-2 -13.5t-18.5 -9l-70 -13q-21 -3 -24.5 -16.5t10.5 -28.5l49 -49q13 -14 9 -24.5t-25 -10.5l-72 4q-20 0 -26.5 -11.5t5.5 -28.5l37 -62q10 -17 4 -25.5t-26 -5.5l-70 19q-18 6 -27.5 -5t-3.5 -30l23 -68
q8 -19 0 -26t-27 2l-63 31q-17 9 -28.5 1t-10.5 -30l10 -68q1 -21 -7.5 -25.5t-23.5 7.5l-57 43q-15 12 -28.5 5.5t-14.5 -26.5l-4 -69q-1 -20 -12 -23.5t-23 10.5l-47 56q-13 14 -26 12t-19 -22l-20 -68q-3 -13 -9.5 -18t-14 -1t-13.5 15l-35 61q-9 19 -22 19t-25 -19
l-31 -61q-6 -11 -13.5 -15t-14 1t-9.5 18l-20 68q-6 20 -19 22t-26 -12l-47 -56q-12 -14 -22 -10.5t-13 23.5l-4 69q-2 20 -15 26.5t-30 -5.5l-54 -43q-17 -13 -26.5 -8t-5.5 26l10 68q1 22 -10.5 30t-30.5 -1l-62 -31q-19 -9 -26.5 -2t0.5 26l22 68q8 19 -1.5 30t-28.5 5
l-70 -19q-20 -3 -26.5 5.5t3.5 25.5l39 62q11 17 4.5 28.5t-26.5 11.5l-72 -4q-21 0 -25 10.5t9 24.5l51 49q13 15 9 28.5t-25 16.5l-68 13q-21 4 -23.5 15.5t15.5 21.5l57 41q2 1 3.5 2.5l3 3l2.5 2.5t2 3l1 1q19 16 37 -12l33 -64q6 -12 13 -15.5t13.5 2t10.5 17.5l18 70
q6 19 19.5 21t25.5 -13l48 -53q14 -15 23 -11.5t11 23.5l4 70q3 20 15.5 25t27.5 -7l58 -43q17 -12 25.5 -7t4.5 25l-8 70q-3 20 8.5 28t28.5 -1l64 -29q19 -9 26.5 -1.5t1.5 26.5l-22 67q-8 19 0.5 29t27.5 4l15 -2q40 -77 70 -202.5t30 -217.5q-15 -18 -34.5 -27.5
t-59.5 -9.5h-8q0 46 -33 72q18 -21 18 -55v-15q-32 3 -32 39q0 43 -28 72t-77 29q-41 0 -68.5 -32t-27.5 -79q0 -60 49.5 -96.5t138.5 -36.5q85 0 172 42t156.5 112t125 154.5t86 175.5t30.5 169q0 59 -36.5 98t-94.5 39q-48 0 -85.5 -33.5t-37.5 -84.5q0 -106 119 -119
q-29 -119 -60 -174q-12 96 -43.5 178t-75.5 129q91 -120 107 -330l-29 -41q0 156 -51 287t-131 172q-5 9 2 18.5t22 12.5l70 12q19 3 21 13.5t-15 21.5l-59 39q-15 13 -13.5 26.5t19.5 20.5l64 28q14 4 19.5 11t0 14t-19.5 12l-64 27q-23 10 -20 29q11 6 14 16l35 61
q9 19 20.5 18t16.5 -20l20 -67q6 -21 18.5 -24t26.5 14l47 53q12 15 23 12.5t12 -22.5l4 -72q1 -21 14.5 -26.5t28.5 7.5l57 44q15 12 24 5.5t7 -26.5l-10 -70q-1 -20 10.5 -27.5t28.5 1.5l63 33q19 8 26.5 0t0.5 -29l-23 -64q-6 -20 3 -30t28 -4l70 14q20 6 26.5 -2
t-4.5 -27l-37 -59q-12 -17 -5.5 -29.5t26.5 -11.5l72 4q21 0 25 -11t-9 -24l-49 -53q-14 -13 -10.5 -26.5t24.5 -16.5l70 -12q43 -10 6 -39l-57 -39q-16 -10 -15 -24t21 -21l63 -27q12 -5 16.5 -12t0 -13.5t-16.5 -11.5zM745 336q106 0 212.5 65t183.5 162t125.5 212
t48.5 214q0 63 -41 101q24 -38 24 -84q0 -100 -47.5 -215.5t-126.5 -215.5q-85 -105 -188.5 -168t-212.5 -63q-59 0 -100 18q42 -26 122 -26z" />
    <glyph glyph-name="section" unicode="&#xa7;" horiz-adv-x="1200" 
d="M795 969q0 41 20.5 73t54.5 50q-21 55 -79 55q-56 0 -86.5 -45.5t-30.5 -89.5q0 -35 28.5 -69.5t69.5 -67t82 -70t69.5 -94t28.5 -123.5q0 -100 -61 -186.5t-189 -116.5q-3 -53 -22 -104t-56.5 -99.5t-105 -78.5t-156.5 -30q-175 0 -262 120q-67 91 -55 203
q11 102 79 149q38 26 87 26q56 0 94.5 -38t38.5 -93q0 -41 -21.5 -74t-54.5 -49q20 -55 80 -55q56 0 86.5 45.5t30.5 89.5q0 35 -29 69.5t-70.5 67t-82.5 70t-70 94t-29 123.5q0 99 61 185.5t189 117.5q3 42 15 82.5t38.5 82.5t63.5 74t95.5 52t129.5 20q175 0 263 -120
q66 -90 55 -202q-10 -102 -79 -149q-38 -26 -87 -26q-56 0 -94.5 38t-38.5 93zM727 573q0 41 -26.5 78t-60.5 62t-80 62.5t-73 72.5q-77 -34 -77 -113q0 -42 26.5 -79t61 -62t80 -62.5t71.5 -72.5q78 35 78 114z" />
    <glyph glyph-name="dieresis" unicode="&#xa8;" horiz-adv-x="870" 
d="M1526 752q-20 -7 -21 -22t15 -25l57 -41q11 -7 14.5 -14.5t-2 -13.5t-18.5 -9l-70 -13q-21 -3 -24.5 -16.5t10.5 -28.5l49 -49q13 -14 9 -24.5t-25 -10.5l-72 4q-20 0 -26.5 -11.5t5.5 -28.5l37 -62q10 -17 4 -25.5t-26 -5.5l-70 19q-18 6 -27.5 -5t-3.5 -30l23 -68
q8 -19 0 -26t-27 2l-63 31q-17 9 -28.5 1t-10.5 -30l10 -68q1 -21 -7.5 -25.5t-23.5 7.5l-57 43q-15 12 -28.5 5.5t-14.5 -26.5l-4 -69q-1 -20 -12 -23.5t-23 10.5l-47 56q-13 14 -26 12t-19 -22l-20 -68q-3 -13 -9.5 -18t-14 -1t-13.5 15l-35 61q-9 19 -22 19t-25 -19
l-31 -61q-6 -11 -13.5 -15t-14 1t-9.5 18l-20 68q-6 20 -19 22t-26 -12l-47 -56q-12 -14 -22 -10.5t-13 23.5l-4 69q-2 20 -15 26.5t-30 -5.5l-54 -43q-17 -13 -26.5 -8t-5.5 26l10 68q1 22 -10.5 30t-30.5 -1l-62 -31q-19 -9 -26.5 -2t0.5 26l22 68q8 19 -1.5 30t-28.5 5
l-70 -19q-20 -3 -26.5 5.5t3.5 25.5l39 62q11 17 4.5 28.5t-26.5 11.5l-72 -4q-21 0 -25 10.5t9 24.5l51 49q13 15 9 28.5t-25 16.5l-68 13q-21 4 -23.5 15.5t15.5 21.5l57 41q2 1 3.5 2.5l3 3l2.5 2.5t2 3l1 1q19 16 37 -12l33 -64q6 -12 13 -15.5t13.5 2t10.5 17.5l18 70
q6 19 19.5 21t25.5 -13l48 -53q14 -15 23 -11.5t11 23.5l4 70q3 20 15.5 25t27.5 -7l58 -43q17 -12 25.5 -7t4.5 25l-8 70q-3 20 8.5 28t28.5 -1l64 -29q19 -9 26.5 -1.5t1.5 26.5l-22 67q-8 19 0.5 29t27.5 4l15 -2q40 -77 70 -202.5t30 -217.5q-15 -18 -34.5 -27.5
t-59.5 -9.5h-8q0 46 -33 72q18 -21 18 -55v-15q-32 3 -32 39q0 43 -28 72t-77 29q-41 0 -68.5 -32t-27.5 -79q0 -60 49.5 -96.5t138.5 -36.5q85 0 172 42t156.5 112t125 154.5t86 175.5t30.5 169q0 59 -36.5 98t-94.5 39q-48 0 -85.5 -33.5t-37.5 -84.5q0 -106 119 -119
q-29 -119 -60 -174q-12 96 -43.5 178t-75.5 129q91 -120 107 -330l-29 -41q0 156 -51 287t-131 172q-5 9 2 18.5t22 12.5l70 12q19 3 21 13.5t-15 21.5l-59 39q-15 13 -13.5 26.5t19.5 20.5l64 28q14 4 19.5 11t0 14t-19.5 12l-64 27q-23 10 -20 29q11 6 14 16l35 61
q9 19 20.5 18t16.5 -20l20 -67q6 -21 18.5 -24t26.5 14l47 53q12 15 23 12.5t12 -22.5l4 -72q1 -21 14.5 -26.5t28.5 7.5l57 44q15 12 24 5.5t7 -26.5l-10 -70q-1 -20 10.5 -27.5t28.5 1.5l63 33q19 8 26.5 0t0.5 -29l-23 -64q-6 -20 3 -30t28 -4l70 14q20 6 26.5 -2
t-4.5 -27l-37 -59q-12 -17 -5.5 -29.5t26.5 -11.5l72 4q21 0 25 -11t-9 -24l-49 -53q-14 -13 -10.5 -26.5t24.5 -16.5l70 -12q43 -10 6 -39l-57 -39q-16 -10 -15 -24t21 -21l63 -27q12 -5 16.5 -12t0 -13.5t-16.5 -11.5zM745 336q106 0 212.5 65t183.5 162t125.5 212
t48.5 214q0 63 -41 101q24 -38 24 -84q0 -100 -47.5 -215.5t-126.5 -215.5q-85 -105 -188.5 -168t-212.5 -63q-59 0 -100 18q42 -26 122 -26z" />
    <glyph glyph-name="copyright" unicode="&#xa9;" horiz-adv-x="1441" 
d="M811 948q80 0 132.5 -32t69.5 -83.5t8.5 -114t-42.5 -124.5h-209q16 33 26.5 56t19.5 45.5t12 37t2 26t-7.5 16.5t-19.5 5q-46 0 -94.5 -58.5t-77.5 -132t-29 -122.5q0 -40 20.5 -64t59.5 -24q51 0 113.5 41t103.5 98l98 -74q-52 -88 -152 -149.5t-208 -61.5
q-105 0 -170.5 64t-65.5 182q0 102 55 210.5t152 183.5t203 75zM831 1200q225 0 371 -145t146 -365q0 -139 -62 -271.5t-163 -229.5t-235 -156.5t-272 -59.5q-224 0 -369 145t-145 365q0 138 61.5 270.5t162 230t234 157t271.5 59.5zM829 1044q-109 0 -214.5 -48.5
t-184 -126.5t-126.5 -181t-48 -207q0 -158 104 -258t261 -100q106 0 211 49t184 126.5t128.5 180.5t49.5 205q0 153 -99.5 256.5t-265.5 103.5z" />
    <glyph glyph-name="ordfeminine" unicode="&#xaa;" horiz-adv-x="1058" 
d="M944 784l76 -88q-117 -92 -236 -92q-48 0 -85 14t-56 34t-31 39.5t-15 33.5l-3 14q-4 -5 -12.5 -14.5t-35.5 -32.5t-56 -41t-72 -32.5t-86 -14.5q-87 0 -138 55.5t-51 145.5q0 45 12.5 110.5t36.5 143.5t63.5 154.5t88 140t116 102.5t142.5 39q44 0 80.5 -13.5t57 -32.5
t34 -38.5t18.5 -32.5l5 -14l303 109l-201 -502q-21 -53 -32.5 -92t-13.5 -60.5t3 -34.5t13 -16.5t20 -3.5q26 0 55 20zM457 813q39 0 80 28.5t63 56.5l21 28l104 264q0 4 -0.5 10t-4.5 22t-11 28t-21.5 22t-34.5 10q-59 0 -119.5 -83t-94 -178.5t-33.5 -150.5q0 -57 51 -57z
" />
    <glyph glyph-name="guillemotleft" unicode="&#xab;" horiz-adv-x="1736" 
d="M1526 752q-20 -7 -21 -22t15 -25l57 -41q11 -7 14.5 -14.5t-2 -13.5t-18.5 -9l-70 -13q-21 -3 -24.5 -16.5t10.5 -28.5l49 -49q13 -14 9 -24.5t-25 -10.5l-72 4q-20 0 -26.5 -11.5t5.5 -28.5l37 -62q10 -17 4 -25.5t-26 -5.5l-70 19q-18 6 -27.5 -5t-3.5 -30l23 -68
q8 -19 0 -26t-27 2l-63 31q-17 9 -28.5 1t-10.5 -30l10 -68q1 -21 -7.5 -25.5t-23.5 7.5l-57 43q-15 12 -28.5 5.5t-14.5 -26.5l-4 -69q-1 -20 -12 -23.5t-23 10.5l-47 56q-13 14 -26 12t-19 -22l-20 -68q-3 -13 -9.5 -18t-14 -1t-13.5 15l-35 61q-9 19 -22 19t-25 -19
l-31 -61q-6 -11 -13.5 -15t-14 1t-9.5 18l-20 68q-6 20 -19 22t-26 -12l-47 -56q-12 -14 -22 -10.5t-13 23.5l-4 69q-2 20 -15 26.5t-30 -5.5l-54 -43q-17 -13 -26.5 -8t-5.5 26l10 68q1 22 -10.5 30t-30.5 -1l-62 -31q-19 -9 -26.5 -2t0.5 26l22 68q8 19 -1.5 30t-28.5 5
l-70 -19q-20 -3 -26.5 5.5t3.5 25.5l39 62q11 17 4.5 28.5t-26.5 11.5l-72 -4q-21 0 -25 10.5t9 24.5l51 49q13 15 9 28.5t-25 16.5l-68 13q-21 4 -23.5 15.5t15.5 21.5l57 41q2 1 3.5 2.5l3 3l2.5 2.5t2 3l1 1q19 16 37 -12l33 -64q6 -12 13 -15.5t13.5 2t10.5 17.5l18 70
q6 19 19.5 21t25.5 -13l48 -53q14 -15 23 -11.5t11 23.5l4 70q3 20 15.5 25t27.5 -7l58 -43q17 -12 25.5 -7t4.5 25l-8 70q-3 20 8.5 28t28.5 -1l64 -29q19 -9 26.5 -1.5t1.5 26.5l-22 67q-8 19 0.5 29t27.5 4l15 -2q40 -77 70 -202.5t30 -217.5q-15 -18 -34.5 -27.5
t-59.5 -9.5h-8q0 46 -33 72q18 -21 18 -55v-15q-32 3 -32 39q0 43 -28 72t-77 29q-41 0 -68.5 -32t-27.5 -79q0 -60 49.5 -96.5t138.5 -36.5q85 0 172 42t156.5 112t125 154.5t86 175.5t30.5 169q0 59 -36.5 98t-94.5 39q-48 0 -85.5 -33.5t-37.5 -84.5q0 -106 119 -119
q-29 -119 -60 -174q-12 96 -43.5 178t-75.5 129q91 -120 107 -330l-29 -41q0 156 -51 287t-131 172q-5 9 2 18.5t22 12.5l70 12q19 3 21 13.5t-15 21.5l-59 39q-15 13 -13.5 26.5t19.5 20.5l64 28q14 4 19.5 11t0 14t-19.5 12l-64 27q-23 10 -20 29q11 6 14 16l35 61
q9 19 20.5 18t16.5 -20l20 -67q6 -21 18.5 -24t26.5 14l47 53q12 15 23 12.5t12 -22.5l4 -72q1 -21 14.5 -26.5t28.5 7.5l57 44q15 12 24 5.5t7 -26.5l-10 -70q-1 -20 10.5 -27.5t28.5 1.5l63 33q19 8 26.5 0t0.5 -29l-23 -64q-6 -20 3 -30t28 -4l70 14q20 6 26.5 -2
t-4.5 -27l-37 -59q-12 -17 -5.5 -29.5t26.5 -11.5l72 4q21 0 25 -11t-9 -24l-49 -53q-14 -13 -10.5 -26.5t24.5 -16.5l70 -12q43 -10 6 -39l-57 -39q-16 -10 -15 -24t21 -21l63 -27q12 -5 16.5 -12t0 -13.5t-16.5 -11.5zM745 336q106 0 212.5 65t183.5 162t125.5 212
t48.5 214q0 63 -41 101q24 -38 24 -84q0 -100 -47.5 -215.5t-126.5 -215.5q-85 -105 -188.5 -168t-212.5 -63q-59 0 -100 18q42 -26 122 -26z" />
    <glyph glyph-name="logicalnot" unicode="&#xac;" horiz-adv-x="1247" 
d="M1526 752q-20 -7 -21 -22t15 -25l57 -41q11 -7 14.5 -14.5t-2 -13.5t-18.5 -9l-70 -13q-21 -3 -24.5 -16.5t10.5 -28.5l49 -49q13 -14 9 -24.5t-25 -10.5l-72 4q-20 0 -26.5 -11.5t5.5 -28.5l37 -62q10 -17 4 -25.5t-26 -5.5l-70 19q-18 6 -27.5 -5t-3.5 -30l23 -68
q8 -19 0 -26t-27 2l-63 31q-17 9 -28.5 1t-10.5 -30l10 -68q1 -21 -7.5 -25.5t-23.5 7.5l-57 43q-15 12 -28.5 5.5t-14.5 -26.5l-4 -69q-1 -20 -12 -23.5t-23 10.5l-47 56q-13 14 -26 12t-19 -22l-20 -68q-3 -13 -9.5 -18t-14 -1t-13.5 15l-35 61q-9 19 -22 19t-25 -19
l-31 -61q-6 -11 -13.5 -15t-14 1t-9.5 18l-20 68q-6 20 -19 22t-26 -12l-47 -56q-12 -14 -22 -10.5t-13 23.5l-4 69q-2 20 -15 26.5t-30 -5.5l-54 -43q-17 -13 -26.5 -8t-5.5 26l10 68q1 22 -10.5 30t-30.5 -1l-62 -31q-19 -9 -26.5 -2t0.5 26l22 68q8 19 -1.5 30t-28.5 5
l-70 -19q-20 -3 -26.5 5.5t3.5 25.5l39 62q11 17 4.5 28.5t-26.5 11.5l-72 -4q-21 0 -25 10.5t9 24.5l51 49q13 15 9 28.5t-25 16.5l-68 13q-21 4 -23.5 15.5t15.5 21.5l57 41q2 1 3.5 2.5l3 3l2.5 2.5t2 3l1 1q19 16 37 -12l33 -64q6 -12 13 -15.5t13.5 2t10.5 17.5l18 70
q6 19 19.5 21t25.5 -13l48 -53q14 -15 23 -11.5t11 23.5l4 70q3 20 15.5 25t27.5 -7l58 -43q17 -12 25.5 -7t4.5 25l-8 70q-3 20 8.5 28t28.5 -1l64 -29q19 -9 26.5 -1.5t1.5 26.5l-22 67q-8 19 0.5 29t27.5 4l15 -2q40 -77 70 -202.5t30 -217.5q-15 -18 -34.5 -27.5
t-59.5 -9.5h-8q0 46 -33 72q18 -21 18 -55v-15q-32 3 -32 39q0 43 -28 72t-77 29q-41 0 -68.5 -32t-27.5 -79q0 -60 49.5 -96.5t138.5 -36.5q85 0 172 42t156.5 112t125 154.5t86 175.5t30.5 169q0 59 -36.5 98t-94.5 39q-48 0 -85.5 -33.5t-37.5 -84.5q0 -106 119 -119
q-29 -119 -60 -174q-12 96 -43.5 178t-75.5 129q91 -120 107 -330l-29 -41q0 156 -51 287t-131 172q-5 9 2 18.5t22 12.5l70 12q19 3 21 13.5t-15 21.5l-59 39q-15 13 -13.5 26.5t19.5 20.5l64 28q14 4 19.5 11t0 14t-19.5 12l-64 27q-23 10 -20 29q11 6 14 16l35 61
q9 19 20.5 18t16.5 -20l20 -67q6 -21 18.5 -24t26.5 14l47 53q12 15 23 12.5t12 -22.5l4 -72q1 -21 14.5 -26.5t28.5 7.5l57 44q15 12 24 5.5t7 -26.5l-10 -70q-1 -20 10.5 -27.5t28.5 1.5l63 33q19 8 26.5 0t0.5 -29l-23 -64q-6 -20 3 -30t28 -4l70 14q20 6 26.5 -2
t-4.5 -27l-37 -59q-12 -17 -5.5 -29.5t26.5 -11.5l72 4q21 0 25 -11t-9 -24l-49 -53q-14 -13 -10.5 -26.5t24.5 -16.5l70 -12q43 -10 6 -39l-57 -39q-16 -10 -15 -24t21 -21l63 -27q12 -5 16.5 -12t0 -13.5t-16.5 -11.5zM745 336q106 0 212.5 65t183.5 162t125.5 212
t48.5 214q0 63 -41 101q24 -38 24 -84q0 -100 -47.5 -215.5t-126.5 -215.5q-85 -105 -188.5 -168t-212.5 -63q-59 0 -100 18q42 -26 122 -26z" />
    <glyph glyph-name="registered" unicode="&#xae;" horiz-adv-x="860" 
d="M635 1495q161 0 263.5 -104t102.5 -261q0 -98 -44 -191.5t-115 -162t-166 -110t-193 -41.5q-160 0 -263 102.5t-101 257.5q0 133 73.5 251.5t193 188.5t249.5 70zM733 848q6 5 15 14t33 38.5t42.5 60.5t33.5 78.5t15 93.5q0 101 -65 167t-172 66q-94 0 -183.5 -51
t-146.5 -140t-57 -188q0 -104 64 -168.5t180 -64.5q27 0 51 3.5t35 6.5l10 4q-13 16 -13 53q0 24 8.5 77.5t8.5 64.5q0 35 -21 49l-63 -160h-113l129 326h117l-43 -107q29 1 50.5 27.5t21.5 56.5t-22.5 49t-63.5 19q-59 0 -91 -37t-32 -74q0 -7 2 -15.5t4 -12.5l2 -5
l-96 -22q-8 24 -8 53q0 85 65 144t160 59q83 0 135.5 -45.5t52.5 -112.5q0 -51 -32.5 -91.5t-94.5 -51.5l4 -2q4 -3 8.5 -6.5t10.5 -9.5t11 -13.5t8 -18.5t3 -24q0 -17 -7 -57.5t-7 -46.5q0 -25 36 1q8 6 15 13z" />
    <glyph glyph-name="macron" unicode="&#xaf;" horiz-adv-x="757" 
d="M1526 752q-20 -7 -21 -22t15 -25l57 -41q11 -7 14.5 -14.5t-2 -13.5t-18.5 -9l-70 -13q-21 -3 -24.5 -16.5t10.5 -28.5l49 -49q13 -14 9 -24.5t-25 -10.5l-72 4q-20 0 -26.5 -11.5t5.5 -28.5l37 -62q10 -17 4 -25.5t-26 -5.5l-70 19q-18 6 -27.5 -5t-3.5 -30l23 -68
q8 -19 0 -26t-27 2l-63 31q-17 9 -28.5 1t-10.5 -30l10 -68q1 -21 -7.5 -25.5t-23.5 7.5l-57 43q-15 12 -28.5 5.5t-14.5 -26.5l-4 -69q-1 -20 -12 -23.5t-23 10.5l-47 56q-13 14 -26 12t-19 -22l-20 -68q-3 -13 -9.5 -18t-14 -1t-13.5 15l-35 61q-9 19 -22 19t-25 -19
l-31 -61q-6 -11 -13.5 -15t-14 1t-9.5 18l-20 68q-6 20 -19 22t-26 -12l-47 -56q-12 -14 -22 -10.5t-13 23.5l-4 69q-2 20 -15 26.5t-30 -5.5l-54 -43q-17 -13 -26.5 -8t-5.5 26l10 68q1 22 -10.5 30t-30.5 -1l-62 -31q-19 -9 -26.5 -2t0.5 26l22 68q8 19 -1.5 30t-28.5 5
l-70 -19q-20 -3 -26.5 5.5t3.5 25.5l39 62q11 17 4.5 28.5t-26.5 11.5l-72 -4q-21 0 -25 10.5t9 24.5l51 49q13 15 9 28.5t-25 16.5l-68 13q-21 4 -23.5 15.5t15.5 21.5l57 41q2 1 3.5 2.5l3 3l2.5 2.5t2 3l1 1q19 16 37 -12l33 -64q6 -12 13 -15.5t13.5 2t10.5 17.5l18 70
q6 19 19.5 21t25.5 -13l48 -53q14 -15 23 -11.5t11 23.5l4 70q3 20 15.5 25t27.5 -7l58 -43q17 -12 25.5 -7t4.5 25l-8 70q-3 20 8.5 28t28.5 -1l64 -29q19 -9 26.5 -1.5t1.5 26.5l-22 67q-8 19 0.5 29t27.5 4l15 -2q40 -77 70 -202.5t30 -217.5q-15 -18 -34.5 -27.5
t-59.5 -9.5h-8q0 46 -33 72q18 -21 18 -55v-15q-32 3 -32 39q0 43 -28 72t-77 29q-41 0 -68.5 -32t-27.5 -79q0 -60 49.5 -96.5t138.5 -36.5q85 0 172 42t156.5 112t125 154.5t86 175.5t30.5 169q0 59 -36.5 98t-94.5 39q-48 0 -85.5 -33.5t-37.5 -84.5q0 -106 119 -119
q-29 -119 -60 -174q-12 96 -43.5 178t-75.5 129q91 -120 107 -330l-29 -41q0 156 -51 287t-131 172q-5 9 2 18.5t22 12.5l70 12q19 3 21 13.5t-15 21.5l-59 39q-15 13 -13.5 26.5t19.5 20.5l64 28q14 4 19.5 11t0 14t-19.5 12l-64 27q-23 10 -20 29q11 6 14 16l35 61
q9 19 20.5 18t16.5 -20l20 -67q6 -21 18.5 -24t26.5 14l47 53q12 15 23 12.5t12 -22.5l4 -72q1 -21 14.5 -26.5t28.5 7.5l57 44q15 12 24 5.5t7 -26.5l-10 -70q-1 -20 10.5 -27.5t28.5 1.5l63 33q19 8 26.5 0t0.5 -29l-23 -64q-6 -20 3 -30t28 -4l70 14q20 6 26.5 -2
t-4.5 -27l-37 -59q-12 -17 -5.5 -29.5t26.5 -11.5l72 4q21 0 25 -11t-9 -24l-49 -53q-14 -13 -10.5 -26.5t24.5 -16.5l70 -12q43 -10 6 -39l-57 -39q-16 -10 -15 -24t21 -21l63 -27q12 -5 16.5 -12t0 -13.5t-16.5 -11.5zM745 336q106 0 212.5 65t183.5 162t125.5 212
t48.5 214q0 63 -41 101q24 -38 24 -84q0 -100 -47.5 -215.5t-126.5 -215.5q-85 -105 -188.5 -168t-212.5 -63q-59 0 -100 18q42 -26 122 -26z" />
    <glyph glyph-name="degree" unicode="&#xb0;" horiz-adv-x="653" 
d="M1526 752q-20 -7 -21 -22t15 -25l57 -41q11 -7 14.5 -14.5t-2 -13.5t-18.5 -9l-70 -13q-21 -3 -24.5 -16.5t10.5 -28.5l49 -49q13 -14 9 -24.5t-25 -10.5l-72 4q-20 0 -26.5 -11.5t5.5 -28.5l37 -62q10 -17 4 -25.5t-26 -5.5l-70 19q-18 6 -27.5 -5t-3.5 -30l23 -68
q8 -19 0 -26t-27 2l-63 31q-17 9 -28.5 1t-10.5 -30l10 -68q1 -21 -7.5 -25.5t-23.5 7.5l-57 43q-15 12 -28.5 5.5t-14.5 -26.5l-4 -69q-1 -20 -12 -23.5t-23 10.5l-47 56q-13 14 -26 12t-19 -22l-20 -68q-3 -13 -9.5 -18t-14 -1t-13.5 15l-35 61q-9 19 -22 19t-25 -19
l-31 -61q-6 -11 -13.5 -15t-14 1t-9.5 18l-20 68q-6 20 -19 22t-26 -12l-47 -56q-12 -14 -22 -10.5t-13 23.5l-4 69q-2 20 -15 26.5t-30 -5.5l-54 -43q-17 -13 -26.5 -8t-5.5 26l10 68q1 22 -10.5 30t-30.5 -1l-62 -31q-19 -9 -26.5 -2t0.5 26l22 68q8 19 -1.5 30t-28.5 5
l-70 -19q-20 -3 -26.5 5.5t3.5 25.5l39 62q11 17 4.5 28.5t-26.5 11.5l-72 -4q-21 0 -25 10.5t9 24.5l51 49q13 15 9 28.5t-25 16.5l-68 13q-21 4 -23.5 15.5t15.5 21.5l57 41q2 1 3.5 2.5l3 3l2.5 2.5t2 3l1 1q19 16 37 -12l33 -64q6 -12 13 -15.5t13.5 2t10.5 17.5l18 70
q6 19 19.5 21t25.5 -13l48 -53q14 -15 23 -11.5t11 23.5l4 70q3 20 15.5 25t27.5 -7l58 -43q17 -12 25.5 -7t4.5 25l-8 70q-3 20 8.5 28t28.5 -1l64 -29q19 -9 26.5 -1.5t1.5 26.5l-22 67q-8 19 0.5 29t27.5 4l15 -2q40 -77 70 -202.5t30 -217.5q-15 -18 -34.5 -27.5
t-59.5 -9.5h-8q0 46 -33 72q18 -21 18 -55v-15q-32 3 -32 39q0 43 -28 72t-77 29q-41 0 -68.5 -32t-27.5 -79q0 -60 49.5 -96.5t138.5 -36.5q85 0 172 42t156.5 112t125 154.5t86 175.5t30.5 169q0 59 -36.5 98t-94.5 39q-48 0 -85.5 -33.5t-37.5 -84.5q0 -106 119 -119
q-29 -119 -60 -174q-12 96 -43.5 178t-75.5 129q91 -120 107 -330l-29 -41q0 156 -51 287t-131 172q-5 9 2 18.5t22 12.5l70 12q19 3 21 13.5t-15 21.5l-59 39q-15 13 -13.5 26.5t19.5 20.5l64 28q14 4 19.5 11t0 14t-19.5 12l-64 27q-23 10 -20 29q11 6 14 16l35 61
q9 19 20.5 18t16.5 -20l20 -67q6 -21 18.5 -24t26.5 14l47 53q12 15 23 12.5t12 -22.5l4 -72q1 -21 14.5 -26.5t28.5 7.5l57 44q15 12 24 5.5t7 -26.5l-10 -70q-1 -20 10.5 -27.5t28.5 1.5l63 33q19 8 26.5 0t0.5 -29l-23 -64q-6 -20 3 -30t28 -4l70 14q20 6 26.5 -2
t-4.5 -27l-37 -59q-12 -17 -5.5 -29.5t26.5 -11.5l72 4q21 0 25 -11t-9 -24l-49 -53q-14 -13 -10.5 -26.5t24.5 -16.5l70 -12q43 -10 6 -39l-57 -39q-16 -10 -15 -24t21 -21l63 -27q12 -5 16.5 -12t0 -13.5t-16.5 -11.5zM745 336q106 0 212.5 65t183.5 162t125.5 212
t48.5 214q0 63 -41 101q24 -38 24 -84q0 -100 -47.5 -215.5t-126.5 -215.5q-85 -105 -188.5 -168t-212.5 -63q-59 0 -100 18q42 -26 122 -26z" />
    <glyph glyph-name="plusminus" unicode="&#xb1;" horiz-adv-x="1261" 
d="M1526 752q-20 -7 -21 -22t15 -25l57 -41q11 -7 14.5 -14.5t-2 -13.5t-18.5 -9l-70 -13q-21 -3 -24.5 -16.5t10.5 -28.5l49 -49q13 -14 9 -24.5t-25 -10.5l-72 4q-20 0 -26.5 -11.5t5.5 -28.5l37 -62q10 -17 4 -25.5t-26 -5.5l-70 19q-18 6 -27.5 -5t-3.5 -30l23 -68
q8 -19 0 -26t-27 2l-63 31q-17 9 -28.5 1t-10.5 -30l10 -68q1 -21 -7.5 -25.5t-23.5 7.5l-57 43q-15 12 -28.5 5.5t-14.5 -26.5l-4 -69q-1 -20 -12 -23.5t-23 10.5l-47 56q-13 14 -26 12t-19 -22l-20 -68q-3 -13 -9.5 -18t-14 -1t-13.5 15l-35 61q-9 19 -22 19t-25 -19
l-31 -61q-6 -11 -13.5 -15t-14 1t-9.5 18l-20 68q-6 20 -19 22t-26 -12l-47 -56q-12 -14 -22 -10.5t-13 23.5l-4 69q-2 20 -15 26.5t-30 -5.5l-54 -43q-17 -13 -26.5 -8t-5.5 26l10 68q1 22 -10.5 30t-30.5 -1l-62 -31q-19 -9 -26.5 -2t0.5 26l22 68q8 19 -1.5 30t-28.5 5
l-70 -19q-20 -3 -26.5 5.5t3.5 25.5l39 62q11 17 4.5 28.5t-26.5 11.5l-72 -4q-21 0 -25 10.5t9 24.5l51 49q13 15 9 28.5t-25 16.5l-68 13q-21 4 -23.5 15.5t15.5 21.5l57 41q2 1 3.5 2.5l3 3l2.5 2.5t2 3l1 1q19 16 37 -12l33 -64q6 -12 13 -15.5t13.5 2t10.5 17.5l18 70
q6 19 19.5 21t25.5 -13l48 -53q14 -15 23 -11.5t11 23.5l4 70q3 20 15.5 25t27.5 -7l58 -43q17 -12 25.5 -7t4.5 25l-8 70q-3 20 8.5 28t28.5 -1l64 -29q19 -9 26.5 -1.5t1.5 26.5l-22 67q-8 19 0.5 29t27.5 4l15 -2q40 -77 70 -202.5t30 -217.5q-15 -18 -34.5 -27.5
t-59.5 -9.5h-8q0 46 -33 72q18 -21 18 -55v-15q-32 3 -32 39q0 43 -28 72t-77 29q-41 0 -68.5 -32t-27.5 -79q0 -60 49.5 -96.5t138.5 -36.5q85 0 172 42t156.5 112t125 154.5t86 175.5t30.5 169q0 59 -36.5 98t-94.5 39q-48 0 -85.5 -33.5t-37.5 -84.5q0 -106 119 -119
q-29 -119 -60 -174q-12 96 -43.5 178t-75.5 129q91 -120 107 -330l-29 -41q0 156 -51 287t-131 172q-5 9 2 18.5t22 12.5l70 12q19 3 21 13.5t-15 21.5l-59 39q-15 13 -13.5 26.5t19.5 20.5l64 28q14 4 19.5 11t0 14t-19.5 12l-64 27q-23 10 -20 29q11 6 14 16l35 61
q9 19 20.5 18t16.5 -20l20 -67q6 -21 18.5 -24t26.5 14l47 53q12 15 23 12.5t12 -22.5l4 -72q1 -21 14.5 -26.5t28.5 7.5l57 44q15 12 24 5.5t7 -26.5l-10 -70q-1 -20 10.5 -27.5t28.5 1.5l63 33q19 8 26.5 0t0.5 -29l-23 -64q-6 -20 3 -30t28 -4l70 14q20 6 26.5 -2
t-4.5 -27l-37 -59q-12 -17 -5.5 -29.5t26.5 -11.5l72 4q21 0 25 -11t-9 -24l-49 -53q-14 -13 -10.5 -26.5t24.5 -16.5l70 -12q43 -10 6 -39l-57 -39q-16 -10 -15 -24t21 -21l63 -27q12 -5 16.5 -12t0 -13.5t-16.5 -11.5zM745 336q106 0 212.5 65t183.5 162t125.5 212
t48.5 214q0 63 -41 101q24 -38 24 -84q0 -100 -47.5 -215.5t-126.5 -215.5q-85 -105 -188.5 -168t-212.5 -63q-59 0 -100 18q42 -26 122 -26z" />
    <glyph glyph-name="twosuperior" unicode="&#xb2;" horiz-adv-x="792" 
d="M1526 752q-20 -7 -21 -22t15 -25l57 -41q11 -7 14.5 -14.5t-2 -13.5t-18.5 -9l-70 -13q-21 -3 -24.5 -16.5t10.5 -28.5l49 -49q13 -14 9 -24.5t-25 -10.5l-72 4q-20 0 -26.5 -11.5t5.5 -28.5l37 -62q10 -17 4 -25.5t-26 -5.5l-70 19q-18 6 -27.5 -5t-3.5 -30l23 -68
q8 -19 0 -26t-27 2l-63 31q-17 9 -28.5 1t-10.5 -30l10 -68q1 -21 -7.5 -25.5t-23.5 7.5l-57 43q-15 12 -28.5 5.5t-14.5 -26.5l-4 -69q-1 -20 -12 -23.5t-23 10.5l-47 56q-13 14 -26 12t-19 -22l-20 -68q-3 -13 -9.5 -18t-14 -1t-13.5 15l-35 61q-9 19 -22 19t-25 -19
l-31 -61q-6 -11 -13.5 -15t-14 1t-9.5 18l-20 68q-6 20 -19 22t-26 -12l-47 -56q-12 -14 -22 -10.5t-13 23.5l-4 69q-2 20 -15 26.5t-30 -5.5l-54 -43q-17 -13 -26.5 -8t-5.5 26l10 68q1 22 -10.5 30t-30.5 -1l-62 -31q-19 -9 -26.5 -2t0.5 26l22 68q8 19 -1.5 30t-28.5 5
l-70 -19q-20 -3 -26.5 5.5t3.5 25.5l39 62q11 17 4.5 28.5t-26.5 11.5l-72 -4q-21 0 -25 10.5t9 24.5l51 49q13 15 9 28.5t-25 16.5l-68 13q-21 4 -23.5 15.5t15.5 21.5l57 41q2 1 3.5 2.5l3 3l2.5 2.5t2 3l1 1q19 16 37 -12l33 -64q6 -12 13 -15.5t13.5 2t10.5 17.5l18 70
q6 19 19.5 21t25.5 -13l48 -53q14 -15 23 -11.5t11 23.5l4 70q3 20 15.5 25t27.5 -7l58 -43q17 -12 25.5 -7t4.5 25l-8 70q-3 20 8.5 28t28.5 -1l64 -29q19 -9 26.5 -1.5t1.5 26.5l-22 67q-8 19 0.5 29t27.5 4l15 -2q40 -77 70 -202.5t30 -217.5q-15 -18 -34.5 -27.5
t-59.5 -9.5h-8q0 46 -33 72q18 -21 18 -55v-15q-32 3 -32 39q0 43 -28 72t-77 29q-41 0 -68.5 -32t-27.5 -79q0 -60 49.5 -96.5t138.5 -36.5q85 0 172 42t156.5 112t125 154.5t86 175.5t30.5 169q0 59 -36.5 98t-94.5 39q-48 0 -85.5 -33.5t-37.5 -84.5q0 -106 119 -119
q-29 -119 -60 -174q-12 96 -43.5 178t-75.5 129q91 -120 107 -330l-29 -41q0 156 -51 287t-131 172q-5 9 2 18.5t22 12.5l70 12q19 3 21 13.5t-15 21.5l-59 39q-15 13 -13.5 26.5t19.5 20.5l64 28q14 4 19.5 11t0 14t-19.5 12l-64 27q-23 10 -20 29q11 6 14 16l35 61
q9 19 20.5 18t16.5 -20l20 -67q6 -21 18.5 -24t26.5 14l47 53q12 15 23 12.5t12 -22.5l4 -72q1 -21 14.5 -26.5t28.5 7.5l57 44q15 12 24 5.5t7 -26.5l-10 -70q-1 -20 10.5 -27.5t28.5 1.5l63 33q19 8 26.5 0t0.5 -29l-23 -64q-6 -20 3 -30t28 -4l70 14q20 6 26.5 -2
t-4.5 -27l-37 -59q-12 -17 -5.5 -29.5t26.5 -11.5l72 4q21 0 25 -11t-9 -24l-49 -53q-14 -13 -10.5 -26.5t24.5 -16.5l70 -12q43 -10 6 -39l-57 -39q-16 -10 -15 -24t21 -21l63 -27q12 -5 16.5 -12t0 -13.5t-16.5 -11.5zM745 336q106 0 212.5 65t183.5 162t125.5 212
t48.5 214q0 63 -41 101q24 -38 24 -84q0 -100 -47.5 -215.5t-126.5 -215.5q-85 -105 -188.5 -168t-212.5 -63q-59 0 -100 18q42 -26 122 -26z" />
    <glyph glyph-name="threesuperior" unicode="&#xb3;" horiz-adv-x="774" 
d="M1526 752q-20 -7 -21 -22t15 -25l57 -41q11 -7 14.5 -14.5t-2 -13.5t-18.5 -9l-70 -13q-21 -3 -24.5 -16.5t10.5 -28.5l49 -49q13 -14 9 -24.5t-25 -10.5l-72 4q-20 0 -26.5 -11.5t5.5 -28.5l37 -62q10 -17 4 -25.5t-26 -5.5l-70 19q-18 6 -27.5 -5t-3.5 -30l23 -68
q8 -19 0 -26t-27 2l-63 31q-17 9 -28.5 1t-10.5 -30l10 -68q1 -21 -7.5 -25.5t-23.5 7.5l-57 43q-15 12 -28.5 5.5t-14.5 -26.5l-4 -69q-1 -20 -12 -23.5t-23 10.5l-47 56q-13 14 -26 12t-19 -22l-20 -68q-3 -13 -9.5 -18t-14 -1t-13.5 15l-35 61q-9 19 -22 19t-25 -19
l-31 -61q-6 -11 -13.5 -15t-14 1t-9.5 18l-20 68q-6 20 -19 22t-26 -12l-47 -56q-12 -14 -22 -10.5t-13 23.5l-4 69q-2 20 -15 26.5t-30 -5.5l-54 -43q-17 -13 -26.5 -8t-5.5 26l10 68q1 22 -10.5 30t-30.5 -1l-62 -31q-19 -9 -26.5 -2t0.5 26l22 68q8 19 -1.5 30t-28.5 5
l-70 -19q-20 -3 -26.5 5.5t3.5 25.5l39 62q11 17 4.5 28.5t-26.5 11.5l-72 -4q-21 0 -25 10.5t9 24.5l51 49q13 15 9 28.5t-25 16.5l-68 13q-21 4 -23.5 15.5t15.5 21.5l57 41q2 1 3.5 2.5l3 3l2.5 2.5t2 3l1 1q19 16 37 -12l33 -64q6 -12 13 -15.5t13.5 2t10.5 17.5l18 70
q6 19 19.5 21t25.5 -13l48 -53q14 -15 23 -11.5t11 23.5l4 70q3 20 15.5 25t27.5 -7l58 -43q17 -12 25.5 -7t4.5 25l-8 70q-3 20 8.5 28t28.5 -1l64 -29q19 -9 26.5 -1.5t1.5 26.5l-22 67q-8 19 0.5 29t27.5 4l15 -2q40 -77 70 -202.5t30 -217.5q-15 -18 -34.5 -27.5
t-59.5 -9.5h-8q0 46 -33 72q18 -21 18 -55v-15q-32 3 -32 39q0 43 -28 72t-77 29q-41 0 -68.5 -32t-27.5 -79q0 -60 49.5 -96.5t138.5 -36.5q85 0 172 42t156.5 112t125 154.5t86 175.5t30.5 169q0 59 -36.5 98t-94.5 39q-48 0 -85.5 -33.5t-37.5 -84.5q0 -106 119 -119
q-29 -119 -60 -174q-12 96 -43.5 178t-75.5 129q91 -120 107 -330l-29 -41q0 156 -51 287t-131 172q-5 9 2 18.5t22 12.5l70 12q19 3 21 13.5t-15 21.5l-59 39q-15 13 -13.5 26.5t19.5 20.5l64 28q14 4 19.5 11t0 14t-19.5 12l-64 27q-23 10 -20 29q11 6 14 16l35 61
q9 19 20.5 18t16.5 -20l20 -67q6 -21 18.5 -24t26.5 14l47 53q12 15 23 12.5t12 -22.5l4 -72q1 -21 14.5 -26.5t28.5 7.5l57 44q15 12 24 5.5t7 -26.5l-10 -70q-1 -20 10.5 -27.5t28.5 1.5l63 33q19 8 26.5 0t0.5 -29l-23 -64q-6 -20 3 -30t28 -4l70 14q20 6 26.5 -2
t-4.5 -27l-37 -59q-12 -17 -5.5 -29.5t26.5 -11.5l72 4q21 0 25 -11t-9 -24l-49 -53q-14 -13 -10.5 -26.5t24.5 -16.5l70 -12q43 -10 6 -39l-57 -39q-16 -10 -15 -24t21 -21l63 -27q12 -5 16.5 -12t0 -13.5t-16.5 -11.5zM745 336q106 0 212.5 65t183.5 162t125.5 212
t48.5 214q0 63 -41 101q24 -38 24 -84q0 -100 -47.5 -215.5t-126.5 -215.5q-85 -105 -188.5 -168t-212.5 -63q-59 0 -100 18q42 -26 122 -26z" />
    <glyph glyph-name="acute" unicode="&#xb4;" horiz-adv-x="757" 
d="M1526 752q-20 -7 -21 -22t15 -25l57 -41q11 -7 14.5 -14.5t-2 -13.5t-18.5 -9l-70 -13q-21 -3 -24.5 -16.5t10.5 -28.5l49 -49q13 -14 9 -24.5t-25 -10.5l-72 4q-20 0 -26.5 -11.5t5.5 -28.5l37 -62q10 -17 4 -25.5t-26 -5.5l-70 19q-18 6 -27.5 -5t-3.5 -30l23 -68
q8 -19 0 -26t-27 2l-63 31q-17 9 -28.5 1t-10.5 -30l10 -68q1 -21 -7.5 -25.5t-23.5 7.5l-57 43q-15 12 -28.5 5.5t-14.5 -26.5l-4 -69q-1 -20 -12 -23.5t-23 10.5l-47 56q-13 14 -26 12t-19 -22l-20 -68q-3 -13 -9.5 -18t-14 -1t-13.5 15l-35 61q-9 19 -22 19t-25 -19
l-31 -61q-6 -11 -13.5 -15t-14 1t-9.5 18l-20 68q-6 20 -19 22t-26 -12l-47 -56q-12 -14 -22 -10.5t-13 23.5l-4 69q-2 20 -15 26.5t-30 -5.5l-54 -43q-17 -13 -26.5 -8t-5.5 26l10 68q1 22 -10.5 30t-30.5 -1l-62 -31q-19 -9 -26.5 -2t0.5 26l22 68q8 19 -1.5 30t-28.5 5
l-70 -19q-20 -3 -26.5 5.5t3.5 25.5l39 62q11 17 4.5 28.5t-26.5 11.5l-72 -4q-21 0 -25 10.5t9 24.5l51 49q13 15 9 28.5t-25 16.5l-68 13q-21 4 -23.5 15.5t15.5 21.5l57 41q2 1 3.5 2.5l3 3l2.5 2.5t2 3l1 1q19 16 37 -12l33 -64q6 -12 13 -15.5t13.5 2t10.5 17.5l18 70
q6 19 19.5 21t25.5 -13l48 -53q14 -15 23 -11.5t11 23.5l4 70q3 20 15.5 25t27.5 -7l58 -43q17 -12 25.5 -7t4.5 25l-8 70q-3 20 8.5 28t28.5 -1l64 -29q19 -9 26.5 -1.5t1.5 26.5l-22 67q-8 19 0.5 29t27.5 4l15 -2q40 -77 70 -202.5t30 -217.5q-15 -18 -34.5 -27.5
t-59.5 -9.5h-8q0 46 -33 72q18 -21 18 -55v-15q-32 3 -32 39q0 43 -28 72t-77 29q-41 0 -68.5 -32t-27.5 -79q0 -60 49.5 -96.5t138.5 -36.5q85 0 172 42t156.5 112t125 154.5t86 175.5t30.5 169q0 59 -36.5 98t-94.5 39q-48 0 -85.5 -33.5t-37.5 -84.5q0 -106 119 -119
q-29 -119 -60 -174q-12 96 -43.5 178t-75.5 129q91 -120 107 -330l-29 -41q0 156 -51 287t-131 172q-5 9 2 18.5t22 12.5l70 12q19 3 21 13.5t-15 21.5l-59 39q-15 13 -13.5 26.5t19.5 20.5l64 28q14 4 19.5 11t0 14t-19.5 12l-64 27q-23 10 -20 29q11 6 14 16l35 61
q9 19 20.5 18t16.5 -20l20 -67q6 -21 18.5 -24t26.5 14l47 53q12 15 23 12.5t12 -22.5l4 -72q1 -21 14.5 -26.5t28.5 7.5l57 44q15 12 24 5.5t7 -26.5l-10 -70q-1 -20 10.5 -27.5t28.5 1.5l63 33q19 8 26.5 0t0.5 -29l-23 -64q-6 -20 3 -30t28 -4l70 14q20 6 26.5 -2
t-4.5 -27l-37 -59q-12 -17 -5.5 -29.5t26.5 -11.5l72 4q21 0 25 -11t-9 -24l-49 -53q-14 -13 -10.5 -26.5t24.5 -16.5l70 -12q43 -10 6 -39l-57 -39q-16 -10 -15 -24t21 -21l63 -27q12 -5 16.5 -12t0 -13.5t-16.5 -11.5zM745 336q106 0 212.5 65t183.5 162t125.5 212
t48.5 214q0 63 -41 101q24 -38 24 -84q0 -100 -47.5 -215.5t-126.5 -215.5q-85 -105 -188.5 -168t-212.5 -63q-59 0 -100 18q42 -26 122 -26z" />
    <glyph glyph-name="mu" unicode="&#xb5;" horiz-adv-x="1177" 
d="M1217 569q32 -3 67 -28t47 -54q-294 -514 -598 -514q-92 0 -152 46.5t-77 138.5q-157 -185 -332 -185q-26 0 -51 7l-154 -386h-325l594 1469h325l-252 -627q-24 -60 -37 -103.5t-15.5 -68t3 -39t14 -18.5t21.5 -4q57 0 119.5 74t160.5 241l222 545h325l-254 -627
q-26 -66 -40.5 -115.5t-17.5 -77t2.5 -43.5t14 -21t21.5 -5q63 0 163 105t206 290z" />
    <glyph glyph-name="paragraph" unicode="&#xb6;" horiz-adv-x="1556" 
d="M1526 752q-20 -7 -21 -22t15 -25l57 -41q11 -7 14.5 -14.5t-2 -13.5t-18.5 -9l-70 -13q-21 -3 -24.5 -16.5t10.5 -28.5l49 -49q13 -14 9 -24.5t-25 -10.5l-72 4q-20 0 -26.5 -11.5t5.5 -28.5l37 -62q10 -17 4 -25.5t-26 -5.5l-70 19q-18 6 -27.5 -5t-3.5 -30l23 -68
q8 -19 0 -26t-27 2l-63 31q-17 9 -28.5 1t-10.5 -30l10 -68q1 -21 -7.5 -25.5t-23.5 7.5l-57 43q-15 12 -28.5 5.5t-14.5 -26.5l-4 -69q-1 -20 -12 -23.5t-23 10.5l-47 56q-13 14 -26 12t-19 -22l-20 -68q-3 -13 -9.5 -18t-14 -1t-13.5 15l-35 61q-9 19 -22 19t-25 -19
l-31 -61q-6 -11 -13.5 -15t-14 1t-9.5 18l-20 68q-6 20 -19 22t-26 -12l-47 -56q-12 -14 -22 -10.5t-13 23.5l-4 69q-2 20 -15 26.5t-30 -5.5l-54 -43q-17 -13 -26.5 -8t-5.5 26l10 68q1 22 -10.5 30t-30.5 -1l-62 -31q-19 -9 -26.5 -2t0.5 26l22 68q8 19 -1.5 30t-28.5 5
l-70 -19q-20 -3 -26.5 5.5t3.5 25.5l39 62q11 17 4.5 28.5t-26.5 11.5l-72 -4q-21 0 -25 10.5t9 24.5l51 49q13 15 9 28.5t-25 16.5l-68 13q-21 4 -23.5 15.5t15.5 21.5l57 41q2 1 3.5 2.5l3 3l2.5 2.5t2 3l1 1q19 16 37 -12l33 -64q6 -12 13 -15.5t13.5 2t10.5 17.5l18 70
q6 19 19.5 21t25.5 -13l48 -53q14 -15 23 -11.5t11 23.5l4 70q3 20 15.5 25t27.5 -7l58 -43q17 -12 25.5 -7t4.5 25l-8 70q-3 20 8.5 28t28.5 -1l64 -29q19 -9 26.5 -1.5t1.5 26.5l-22 67q-8 19 0.5 29t27.5 4l15 -2q40 -77 70 -202.5t30 -217.5q-15 -18 -34.5 -27.5
t-59.5 -9.5h-8q0 46 -33 72q18 -21 18 -55v-15q-32 3 -32 39q0 43 -28 72t-77 29q-41 0 -68.5 -32t-27.5 -79q0 -60 49.5 -96.5t138.5 -36.5q85 0 172 42t156.5 112t125 154.5t86 175.5t30.5 169q0 59 -36.5 98t-94.5 39q-48 0 -85.5 -33.5t-37.5 -84.5q0 -106 119 -119
q-29 -119 -60 -174q-12 96 -43.5 178t-75.5 129q91 -120 107 -330l-29 -41q0 156 -51 287t-131 172q-5 9 2 18.5t22 12.5l70 12q19 3 21 13.5t-15 21.5l-59 39q-15 13 -13.5 26.5t19.5 20.5l64 28q14 4 19.5 11t0 14t-19.5 12l-64 27q-23 10 -20 29q11 6 14 16l35 61
q9 19 20.5 18t16.5 -20l20 -67q6 -21 18.5 -24t26.5 14l47 53q12 15 23 12.5t12 -22.5l4 -72q1 -21 14.5 -26.5t28.5 7.5l57 44q15 12 24 5.5t7 -26.5l-10 -70q-1 -20 10.5 -27.5t28.5 1.5l63 33q19 8 26.5 0t0.5 -29l-23 -64q-6 -20 3 -30t28 -4l70 14q20 6 26.5 -2
t-4.5 -27l-37 -59q-12 -17 -5.5 -29.5t26.5 -11.5l72 4q21 0 25 -11t-9 -24l-49 -53q-14 -13 -10.5 -26.5t24.5 -16.5l70 -12q43 -10 6 -39l-57 -39q-16 -10 -15 -24t21 -21l63 -27q12 -5 16.5 -12t0 -13.5t-16.5 -11.5zM745 336q106 0 212.5 65t183.5 162t125.5 212
t48.5 214q0 63 -41 101q24 -38 24 -84q0 -100 -47.5 -215.5t-126.5 -215.5q-85 -105 -188.5 -168t-212.5 -63q-59 0 -100 18q42 -26 122 -26z" />
    <glyph glyph-name="periodcentered" unicode="&#xb7;" horiz-adv-x="907" 
d="M1526 752q-20 -7 -21 -22t15 -25l57 -41q11 -7 14.5 -14.5t-2 -13.5t-18.5 -9l-70 -13q-21 -3 -24.5 -16.5t10.5 -28.5l49 -49q13 -14 9 -24.5t-25 -10.5l-72 4q-20 0 -26.5 -11.5t5.5 -28.5l37 -62q10 -17 4 -25.5t-26 -5.5l-70 19q-18 6 -27.5 -5t-3.5 -30l23 -68
q8 -19 0 -26t-27 2l-63 31q-17 9 -28.5 1t-10.5 -30l10 -68q1 -21 -7.5 -25.5t-23.5 7.5l-57 43q-15 12 -28.5 5.5t-14.5 -26.5l-4 -69q-1 -20 -12 -23.5t-23 10.5l-47 56q-13 14 -26 12t-19 -22l-20 -68q-3 -13 -9.5 -18t-14 -1t-13.5 15l-35 61q-9 19 -22 19t-25 -19
l-31 -61q-6 -11 -13.5 -15t-14 1t-9.5 18l-20 68q-6 20 -19 22t-26 -12l-47 -56q-12 -14 -22 -10.5t-13 23.5l-4 69q-2 20 -15 26.5t-30 -5.5l-54 -43q-17 -13 -26.5 -8t-5.5 26l10 68q1 22 -10.5 30t-30.5 -1l-62 -31q-19 -9 -26.5 -2t0.5 26l22 68q8 19 -1.5 30t-28.5 5
l-70 -19q-20 -3 -26.5 5.5t3.5 25.5l39 62q11 17 4.5 28.5t-26.5 11.5l-72 -4q-21 0 -25 10.5t9 24.5l51 49q13 15 9 28.5t-25 16.5l-68 13q-21 4 -23.5 15.5t15.5 21.5l57 41q2 1 3.5 2.5l3 3l2.5 2.5t2 3l1 1q19 16 37 -12l33 -64q6 -12 13 -15.5t13.5 2t10.5 17.5l18 70
q6 19 19.5 21t25.5 -13l48 -53q14 -15 23 -11.5t11 23.5l4 70q3 20 15.5 25t27.5 -7l58 -43q17 -12 25.5 -7t4.5 25l-8 70q-3 20 8.5 28t28.5 -1l64 -29q19 -9 26.5 -1.5t1.5 26.5l-22 67q-8 19 0.5 29t27.5 4l15 -2q40 -77 70 -202.5t30 -217.5q-15 -18 -34.5 -27.5
t-59.5 -9.5h-8q0 46 -33 72q18 -21 18 -55v-15q-32 3 -32 39q0 43 -28 72t-77 29q-41 0 -68.5 -32t-27.5 -79q0 -60 49.5 -96.5t138.5 -36.5q85 0 172 42t156.5 112t125 154.5t86 175.5t30.5 169q0 59 -36.5 98t-94.5 39q-48 0 -85.5 -33.5t-37.5 -84.5q0 -106 119 -119
q-29 -119 -60 -174q-12 96 -43.5 178t-75.5 129q91 -120 107 -330l-29 -41q0 156 -51 287t-131 172q-5 9 2 18.5t22 12.5l70 12q19 3 21 13.5t-15 21.5l-59 39q-15 13 -13.5 26.5t19.5 20.5l64 28q14 4 19.5 11t0 14t-19.5 12l-64 27q-23 10 -20 29q11 6 14 16l35 61
q9 19 20.5 18t16.5 -20l20 -67q6 -21 18.5 -24t26.5 14l47 53q12 15 23 12.5t12 -22.5l4 -72q1 -21 14.5 -26.5t28.5 7.5l57 44q15 12 24 5.5t7 -26.5l-10 -70q-1 -20 10.5 -27.5t28.5 1.5l63 33q19 8 26.5 0t0.5 -29l-23 -64q-6 -20 3 -30t28 -4l70 14q20 6 26.5 -2
t-4.5 -27l-37 -59q-12 -17 -5.5 -29.5t26.5 -11.5l72 4q21 0 25 -11t-9 -24l-49 -53q-14 -13 -10.5 -26.5t24.5 -16.5l70 -12q43 -10 6 -39l-57 -39q-16 -10 -15 -24t21 -21l63 -27q12 -5 16.5 -12t0 -13.5t-16.5 -11.5zM745 336q106 0 212.5 65t183.5 162t125.5 212
t48.5 214q0 63 -41 101q24 -38 24 -84q0 -100 -47.5 -215.5t-126.5 -215.5q-85 -105 -188.5 -168t-212.5 -63q-59 0 -100 18q42 -26 122 -26z" />
    <glyph glyph-name="cedilla" unicode="&#xb8;" horiz-adv-x="757" 
d="M1526 752q-20 -7 -21 -22t15 -25l57 -41q11 -7 14.5 -14.5t-2 -13.5t-18.5 -9l-70 -13q-21 -3 -24.5 -16.5t10.5 -28.5l49 -49q13 -14 9 -24.5t-25 -10.5l-72 4q-20 0 -26.5 -11.5t5.5 -28.5l37 -62q10 -17 4 -25.5t-26 -5.5l-70 19q-18 6 -27.5 -5t-3.5 -30l23 -68
q8 -19 0 -26t-27 2l-63 31q-17 9 -28.5 1t-10.5 -30l10 -68q1 -21 -7.5 -25.5t-23.5 7.5l-57 43q-15 12 -28.5 5.5t-14.5 -26.5l-4 -69q-1 -20 -12 -23.5t-23 10.5l-47 56q-13 14 -26 12t-19 -22l-20 -68q-3 -13 -9.5 -18t-14 -1t-13.5 15l-35 61q-9 19 -22 19t-25 -19
l-31 -61q-6 -11 -13.5 -15t-14 1t-9.5 18l-20 68q-6 20 -19 22t-26 -12l-47 -56q-12 -14 -22 -10.5t-13 23.5l-4 69q-2 20 -15 26.5t-30 -5.5l-54 -43q-17 -13 -26.5 -8t-5.5 26l10 68q1 22 -10.5 30t-30.5 -1l-62 -31q-19 -9 -26.5 -2t0.5 26l22 68q8 19 -1.5 30t-28.5 5
l-70 -19q-20 -3 -26.5 5.5t3.5 25.5l39 62q11 17 4.5 28.5t-26.5 11.5l-72 -4q-21 0 -25 10.5t9 24.5l51 49q13 15 9 28.5t-25 16.5l-68 13q-21 4 -23.5 15.5t15.5 21.5l57 41q2 1 3.5 2.5l3 3l2.5 2.5t2 3l1 1q19 16 37 -12l33 -64q6 -12 13 -15.5t13.5 2t10.5 17.5l18 70
q6 19 19.5 21t25.5 -13l48 -53q14 -15 23 -11.5t11 23.5l4 70q3 20 15.5 25t27.5 -7l58 -43q17 -12 25.5 -7t4.5 25l-8 70q-3 20 8.5 28t28.5 -1l64 -29q19 -9 26.5 -1.5t1.5 26.5l-22 67q-8 19 0.5 29t27.5 4l15 -2q40 -77 70 -202.5t30 -217.5q-15 -18 -34.5 -27.5
t-59.5 -9.5h-8q0 46 -33 72q18 -21 18 -55v-15q-32 3 -32 39q0 43 -28 72t-77 29q-41 0 -68.5 -32t-27.5 -79q0 -60 49.5 -96.5t138.5 -36.5q85 0 172 42t156.5 112t125 154.5t86 175.5t30.5 169q0 59 -36.5 98t-94.5 39q-48 0 -85.5 -33.5t-37.5 -84.5q0 -106 119 -119
q-29 -119 -60 -174q-12 96 -43.5 178t-75.5 129q91 -120 107 -330l-29 -41q0 156 -51 287t-131 172q-5 9 2 18.5t22 12.5l70 12q19 3 21 13.5t-15 21.5l-59 39q-15 13 -13.5 26.5t19.5 20.5l64 28q14 4 19.5 11t0 14t-19.5 12l-64 27q-23 10 -20 29q11 6 14 16l35 61
q9 19 20.5 18t16.5 -20l20 -67q6 -21 18.5 -24t26.5 14l47 53q12 15 23 12.5t12 -22.5l4 -72q1 -21 14.5 -26.5t28.5 7.5l57 44q15 12 24 5.5t7 -26.5l-10 -70q-1 -20 10.5 -27.5t28.5 1.5l63 33q19 8 26.5 0t0.5 -29l-23 -64q-6 -20 3 -30t28 -4l70 14q20 6 26.5 -2
t-4.5 -27l-37 -59q-12 -17 -5.5 -29.5t26.5 -11.5l72 4q21 0 25 -11t-9 -24l-49 -53q-14 -13 -10.5 -26.5t24.5 -16.5l70 -12q43 -10 6 -39l-57 -39q-16 -10 -15 -24t21 -21l63 -27q12 -5 16.5 -12t0 -13.5t-16.5 -11.5zM745 336q106 0 212.5 65t183.5 162t125.5 212
t48.5 214q0 63 -41 101q24 -38 24 -84q0 -100 -47.5 -215.5t-126.5 -215.5q-85 -105 -188.5 -168t-212.5 -63q-59 0 -100 18q42 -26 122 -26z" />
    <glyph glyph-name="onesuperior" unicode="&#xb9;" horiz-adv-x="626" 
d="M1526 752q-20 -7 -21 -22t15 -25l57 -41q11 -7 14.5 -14.5t-2 -13.5t-18.5 -9l-70 -13q-21 -3 -24.5 -16.5t10.5 -28.5l49 -49q13 -14 9 -24.5t-25 -10.5l-72 4q-20 0 -26.5 -11.5t5.5 -28.5l37 -62q10 -17 4 -25.5t-26 -5.5l-70 19q-18 6 -27.5 -5t-3.5 -30l23 -68
q8 -19 0 -26t-27 2l-63 31q-17 9 -28.5 1t-10.5 -30l10 -68q1 -21 -7.5 -25.5t-23.5 7.5l-57 43q-15 12 -28.5 5.5t-14.5 -26.5l-4 -69q-1 -20 -12 -23.5t-23 10.5l-47 56q-13 14 -26 12t-19 -22l-20 -68q-3 -13 -9.5 -18t-14 -1t-13.5 15l-35 61q-9 19 -22 19t-25 -19
l-31 -61q-6 -11 -13.5 -15t-14 1t-9.5 18l-20 68q-6 20 -19 22t-26 -12l-47 -56q-12 -14 -22 -10.5t-13 23.5l-4 69q-2 20 -15 26.5t-30 -5.5l-54 -43q-17 -13 -26.5 -8t-5.5 26l10 68q1 22 -10.5 30t-30.5 -1l-62 -31q-19 -9 -26.5 -2t0.5 26l22 68q8 19 -1.5 30t-28.5 5
l-70 -19q-20 -3 -26.5 5.5t3.5 25.5l39 62q11 17 4.5 28.5t-26.5 11.5l-72 -4q-21 0 -25 10.5t9 24.5l51 49q13 15 9 28.5t-25 16.5l-68 13q-21 4 -23.5 15.5t15.5 21.5l57 41q2 1 3.5 2.5l3 3l2.5 2.5t2 3l1 1q19 16 37 -12l33 -64q6 -12 13 -15.5t13.5 2t10.5 17.5l18 70
q6 19 19.5 21t25.5 -13l48 -53q14 -15 23 -11.5t11 23.5l4 70q3 20 15.5 25t27.5 -7l58 -43q17 -12 25.5 -7t4.5 25l-8 70q-3 20 8.5 28t28.5 -1l64 -29q19 -9 26.5 -1.5t1.5 26.5l-22 67q-8 19 0.5 29t27.5 4l15 -2q40 -77 70 -202.5t30 -217.5q-15 -18 -34.5 -27.5
t-59.5 -9.5h-8q0 46 -33 72q18 -21 18 -55v-15q-32 3 -32 39q0 43 -28 72t-77 29q-41 0 -68.5 -32t-27.5 -79q0 -60 49.5 -96.5t138.5 -36.5q85 0 172 42t156.5 112t125 154.5t86 175.5t30.5 169q0 59 -36.5 98t-94.5 39q-48 0 -85.5 -33.5t-37.5 -84.5q0 -106 119 -119
q-29 -119 -60 -174q-12 96 -43.5 178t-75.5 129q91 -120 107 -330l-29 -41q0 156 -51 287t-131 172q-5 9 2 18.5t22 12.5l70 12q19 3 21 13.5t-15 21.5l-59 39q-15 13 -13.5 26.5t19.5 20.5l64 28q14 4 19.5 11t0 14t-19.5 12l-64 27q-23 10 -20 29q11 6 14 16l35 61
q9 19 20.5 18t16.5 -20l20 -67q6 -21 18.5 -24t26.5 14l47 53q12 15 23 12.5t12 -22.5l4 -72q1 -21 14.5 -26.5t28.5 7.5l57 44q15 12 24 5.5t7 -26.5l-10 -70q-1 -20 10.5 -27.5t28.5 1.5l63 33q19 8 26.5 0t0.5 -29l-23 -64q-6 -20 3 -30t28 -4l70 14q20 6 26.5 -2
t-4.5 -27l-37 -59q-12 -17 -5.5 -29.5t26.5 -11.5l72 4q21 0 25 -11t-9 -24l-49 -53q-14 -13 -10.5 -26.5t24.5 -16.5l70 -12q43 -10 6 -39l-57 -39q-16 -10 -15 -24t21 -21l63 -27q12 -5 16.5 -12t0 -13.5t-16.5 -11.5zM745 336q106 0 212.5 65t183.5 162t125.5 212
t48.5 214q0 63 -41 101q24 -38 24 -84q0 -100 -47.5 -215.5t-126.5 -215.5q-85 -105 -188.5 -168t-212.5 -63q-59 0 -100 18q42 -26 122 -26z" />
    <glyph glyph-name="ordmasculine" unicode="&#xba;" horiz-adv-x="931" 
d="M1526 752q-20 -7 -21 -22t15 -25l57 -41q11 -7 14.5 -14.5t-2 -13.5t-18.5 -9l-70 -13q-21 -3 -24.5 -16.5t10.5 -28.5l49 -49q13 -14 9 -24.5t-25 -10.5l-72 4q-20 0 -26.5 -11.5t5.5 -28.5l37 -62q10 -17 4 -25.5t-26 -5.5l-70 19q-18 6 -27.5 -5t-3.5 -30l23 -68
q8 -19 0 -26t-27 2l-63 31q-17 9 -28.5 1t-10.5 -30l10 -68q1 -21 -7.5 -25.5t-23.5 7.5l-57 43q-15 12 -28.5 5.5t-14.5 -26.5l-4 -69q-1 -20 -12 -23.5t-23 10.5l-47 56q-13 14 -26 12t-19 -22l-20 -68q-3 -13 -9.5 -18t-14 -1t-13.5 15l-35 61q-9 19 -22 19t-25 -19
l-31 -61q-6 -11 -13.5 -15t-14 1t-9.5 18l-20 68q-6 20 -19 22t-26 -12l-47 -56q-12 -14 -22 -10.5t-13 23.5l-4 69q-2 20 -15 26.5t-30 -5.5l-54 -43q-17 -13 -26.5 -8t-5.5 26l10 68q1 22 -10.5 30t-30.5 -1l-62 -31q-19 -9 -26.5 -2t0.5 26l22 68q8 19 -1.5 30t-28.5 5
l-70 -19q-20 -3 -26.5 5.5t3.5 25.5l39 62q11 17 4.5 28.5t-26.5 11.5l-72 -4q-21 0 -25 10.5t9 24.5l51 49q13 15 9 28.5t-25 16.5l-68 13q-21 4 -23.5 15.5t15.5 21.5l57 41q2 1 3.5 2.5l3 3l2.5 2.5t2 3l1 1q19 16 37 -12l33 -64q6 -12 13 -15.5t13.5 2t10.5 17.5l18 70
q6 19 19.5 21t25.5 -13l48 -53q14 -15 23 -11.5t11 23.5l4 70q3 20 15.5 25t27.5 -7l58 -43q17 -12 25.5 -7t4.5 25l-8 70q-3 20 8.5 28t28.5 -1l64 -29q19 -9 26.5 -1.5t1.5 26.5l-22 67q-8 19 0.5 29t27.5 4l15 -2q40 -77 70 -202.5t30 -217.5q-15 -18 -34.5 -27.5
t-59.5 -9.5h-8q0 46 -33 72q18 -21 18 -55v-15q-32 3 -32 39q0 43 -28 72t-77 29q-41 0 -68.5 -32t-27.5 -79q0 -60 49.5 -96.5t138.5 -36.5q85 0 172 42t156.5 112t125 154.5t86 175.5t30.5 169q0 59 -36.5 98t-94.5 39q-48 0 -85.5 -33.5t-37.5 -84.5q0 -106 119 -119
q-29 -119 -60 -174q-12 96 -43.5 178t-75.5 129q91 -120 107 -330l-29 -41q0 156 -51 287t-131 172q-5 9 2 18.5t22 12.5l70 12q19 3 21 13.5t-15 21.5l-59 39q-15 13 -13.5 26.5t19.5 20.5l64 28q14 4 19.5 11t0 14t-19.5 12l-64 27q-23 10 -20 29q11 6 14 16l35 61
q9 19 20.5 18t16.5 -20l20 -67q6 -21 18.5 -24t26.5 14l47 53q12 15 23 12.5t12 -22.5l4 -72q1 -21 14.5 -26.5t28.5 7.5l57 44q15 12 24 5.5t7 -26.5l-10 -70q-1 -20 10.5 -27.5t28.5 1.5l63 33q19 8 26.5 0t0.5 -29l-23 -64q-6 -20 3 -30t28 -4l70 14q20 6 26.5 -2
t-4.5 -27l-37 -59q-12 -17 -5.5 -29.5t26.5 -11.5l72 4q21 0 25 -11t-9 -24l-49 -53q-14 -13 -10.5 -26.5t24.5 -16.5l70 -12q43 -10 6 -39l-57 -39q-16 -10 -15 -24t21 -21l63 -27q12 -5 16.5 -12t0 -13.5t-16.5 -11.5zM745 336q106 0 212.5 65t183.5 162t125.5 212
t48.5 214q0 63 -41 101q24 -38 24 -84q0 -100 -47.5 -215.5t-126.5 -215.5q-85 -105 -188.5 -168t-212.5 -63q-59 0 -100 18q42 -26 122 -26z" />
    <glyph glyph-name="guillemotright" unicode="&#xbb;" horiz-adv-x="1736" 
d="M1526 752q-20 -7 -21 -22t15 -25l57 -41q11 -7 14.5 -14.5t-2 -13.5t-18.5 -9l-70 -13q-21 -3 -24.5 -16.5t10.5 -28.5l49 -49q13 -14 9 -24.5t-25 -10.5l-72 4q-20 0 -26.5 -11.5t5.5 -28.5l37 -62q10 -17 4 -25.5t-26 -5.5l-70 19q-18 6 -27.5 -5t-3.5 -30l23 -68
q8 -19 0 -26t-27 2l-63 31q-17 9 -28.5 1t-10.5 -30l10 -68q1 -21 -7.5 -25.5t-23.5 7.5l-57 43q-15 12 -28.5 5.5t-14.5 -26.5l-4 -69q-1 -20 -12 -23.5t-23 10.5l-47 56q-13 14 -26 12t-19 -22l-20 -68q-3 -13 -9.5 -18t-14 -1t-13.5 15l-35 61q-9 19 -22 19t-25 -19
l-31 -61q-6 -11 -13.5 -15t-14 1t-9.5 18l-20 68q-6 20 -19 22t-26 -12l-47 -56q-12 -14 -22 -10.5t-13 23.5l-4 69q-2 20 -15 26.5t-30 -5.5l-54 -43q-17 -13 -26.5 -8t-5.5 26l10 68q1 22 -10.5 30t-30.5 -1l-62 -31q-19 -9 -26.5 -2t0.5 26l22 68q8 19 -1.5 30t-28.5 5
l-70 -19q-20 -3 -26.5 5.5t3.5 25.5l39 62q11 17 4.5 28.5t-26.5 11.5l-72 -4q-21 0 -25 10.5t9 24.5l51 49q13 15 9 28.5t-25 16.5l-68 13q-21 4 -23.5 15.5t15.5 21.5l57 41q2 1 3.5 2.5l3 3l2.5 2.5t2 3l1 1q19 16 37 -12l33 -64q6 -12 13 -15.5t13.5 2t10.5 17.5l18 70
q6 19 19.5 21t25.5 -13l48 -53q14 -15 23 -11.5t11 23.5l4 70q3 20 15.5 25t27.5 -7l58 -43q17 -12 25.5 -7t4.5 25l-8 70q-3 20 8.5 28t28.5 -1l64 -29q19 -9 26.5 -1.5t1.5 26.5l-22 67q-8 19 0.5 29t27.5 4l15 -2q40 -77 70 -202.5t30 -217.5q-15 -18 -34.5 -27.5
t-59.5 -9.5h-8q0 46 -33 72q18 -21 18 -55v-15q-32 3 -32 39q0 43 -28 72t-77 29q-41 0 -68.5 -32t-27.5 -79q0 -60 49.5 -96.5t138.5 -36.5q85 0 172 42t156.5 112t125 154.5t86 175.5t30.5 169q0 59 -36.5 98t-94.5 39q-48 0 -85.5 -33.5t-37.5 -84.5q0 -106 119 -119
q-29 -119 -60 -174q-12 96 -43.5 178t-75.5 129q91 -120 107 -330l-29 -41q0 156 -51 287t-131 172q-5 9 2 18.5t22 12.5l70 12q19 3 21 13.5t-15 21.5l-59 39q-15 13 -13.5 26.5t19.5 20.5l64 28q14 4 19.5 11t0 14t-19.5 12l-64 27q-23 10 -20 29q11 6 14 16l35 61
q9 19 20.5 18t16.5 -20l20 -67q6 -21 18.5 -24t26.5 14l47 53q12 15 23 12.5t12 -22.5l4 -72q1 -21 14.5 -26.5t28.5 7.5l57 44q15 12 24 5.5t7 -26.5l-10 -70q-1 -20 10.5 -27.5t28.5 1.5l63 33q19 8 26.5 0t0.5 -29l-23 -64q-6 -20 3 -30t28 -4l70 14q20 6 26.5 -2
t-4.5 -27l-37 -59q-12 -17 -5.5 -29.5t26.5 -11.5l72 4q21 0 25 -11t-9 -24l-49 -53q-14 -13 -10.5 -26.5t24.5 -16.5l70 -12q43 -10 6 -39l-57 -39q-16 -10 -15 -24t21 -21l63 -27q12 -5 16.5 -12t0 -13.5t-16.5 -11.5zM745 336q106 0 212.5 65t183.5 162t125.5 212
t48.5 214q0 63 -41 101q24 -38 24 -84q0 -100 -47.5 -215.5t-126.5 -215.5q-85 -105 -188.5 -168t-212.5 -63q-59 0 -100 18q42 -26 122 -26z" />
    <glyph glyph-name="onequarter" unicode="&#xbc;" horiz-adv-x="1730" 
d="M782 1468l-362 -905h-215l198 502q-106 -119 -159 -172l-82 94q116 111 217.5 231.5t145.5 185.5l44 64h213zM1151 221h-324l80 191l434 493h299l-196 -489q21 2 39 9t25 13l8 6l86 -94q-3 -5 -9 -14t-27 -31t-46.5 -39t-67.5 -31t-88 -14l-88 -221h-215zM1085 412h144
l119 303zM1350 1468h176l-1217 -1468h-174z" />
    <glyph glyph-name="onehalf" unicode="&#xbd;" horiz-adv-x="1771" 
d="M782 1468l-362 -905h-215l198 502q-106 -119 -159 -172l-82 94q116 111 217.5 231.5t145.5 185.5l44 64h213zM1350 1468h176l-1217 -1468h-174zM1718 700q-2 -209 -317 -428l-62 -45l-39 -26h269l-84 -201h-600l86 207q0 1 28 17t74 43t101 62t110.5 78t101.5 86.5
t74.5 92.5t28.5 92q0 31 -14.5 52.5t-42.5 21.5q-52 0 -89.5 -65t-39.5 -146h-213q1 36 8 74.5t22.5 83t44 83t67 71t96 51t126.5 18.5q71 0 124 -19t82.5 -51.5t43.5 -70.5t14 -81z" />
    <glyph glyph-name="threequarters" unicode="&#xbe;" horiz-adv-x="1865" 
d="M1286 221h-323l79 191l433 493h299l-195 -489q20 2 38 9t26 13l8 6l84 -94q-3 -5 -9 -14t-27 -31t-46 -39t-66.5 -31t-87.5 -14l-90 -221h-213zM1221 412h141l121 303zM1483 1468h176l-1217 -1468h-174zM858 1329q0 -75 -50 -139.5t-155 -97.5q88 -43 88 -158
q0 -56 -21.5 -113.5t-63.5 -110.5t-116 -86.5t-167 -33.5q-83 0 -140.5 27.5t-83.5 70t-33 95.5t4 103t34 93h217q-17 -29 -29 -64.5t-16 -72t13 -60.5t56 -24q64 0 104 58t40 112q0 104 -179 84l62 155q58 0 101.5 11.5t66 27t36 35.5t16.5 33.5t3 25.5q0 58 -63 58
q-86 0 -113 -152h-213q7 42 20.5 82.5t41.5 85.5t66.5 78t99 54.5t134.5 21.5q62 0 108 -16t70.5 -38.5t39 -52.5t18.5 -51t4 -41z" />
    <glyph glyph-name="questiondown" unicode="&#xbf;" horiz-adv-x="1081" 
d="M1526 752q-20 -7 -21 -22t15 -25l57 -41q11 -7 14.5 -14.5t-2 -13.5t-18.5 -9l-70 -13q-21 -3 -24.5 -16.5t10.5 -28.5l49 -49q13 -14 9 -24.5t-25 -10.5l-72 4q-20 0 -26.5 -11.5t5.5 -28.5l37 -62q10 -17 4 -25.5t-26 -5.5l-70 19q-18 6 -27.5 -5t-3.5 -30l23 -68
q8 -19 0 -26t-27 2l-63 31q-17 9 -28.5 1t-10.5 -30l10 -68q1 -21 -7.5 -25.5t-23.5 7.5l-57 43q-15 12 -28.5 5.5t-14.5 -26.5l-4 -69q-1 -20 -12 -23.5t-23 10.5l-47 56q-13 14 -26 12t-19 -22l-20 -68q-3 -13 -9.5 -18t-14 -1t-13.5 15l-35 61q-9 19 -22 19t-25 -19
l-31 -61q-6 -11 -13.5 -15t-14 1t-9.5 18l-20 68q-6 20 -19 22t-26 -12l-47 -56q-12 -14 -22 -10.5t-13 23.5l-4 69q-2 20 -15 26.5t-30 -5.5l-54 -43q-17 -13 -26.5 -8t-5.5 26l10 68q1 22 -10.5 30t-30.5 -1l-62 -31q-19 -9 -26.5 -2t0.5 26l22 68q8 19 -1.5 30t-28.5 5
l-70 -19q-20 -3 -26.5 5.5t3.5 25.5l39 62q11 17 4.5 28.5t-26.5 11.5l-72 -4q-21 0 -25 10.5t9 24.5l51 49q13 15 9 28.5t-25 16.5l-68 13q-21 4 -23.5 15.5t15.5 21.5l57 41q2 1 3.5 2.5l3 3l2.5 2.5t2 3l1 1q19 16 37 -12l33 -64q6 -12 13 -15.5t13.5 2t10.5 17.5l18 70
q6 19 19.5 21t25.5 -13l48 -53q14 -15 23 -11.5t11 23.5l4 70q3 20 15.5 25t27.5 -7l58 -43q17 -12 25.5 -7t4.5 25l-8 70q-3 20 8.5 28t28.5 -1l64 -29q19 -9 26.5 -1.5t1.5 26.5l-22 67q-8 19 0.5 29t27.5 4l15 -2q40 -77 70 -202.5t30 -217.5q-15 -18 -34.5 -27.5
t-59.5 -9.5h-8q0 46 -33 72q18 -21 18 -55v-15q-32 3 -32 39q0 43 -28 72t-77 29q-41 0 -68.5 -32t-27.5 -79q0 -60 49.5 -96.5t138.5 -36.5q85 0 172 42t156.5 112t125 154.5t86 175.5t30.5 169q0 59 -36.5 98t-94.5 39q-48 0 -85.5 -33.5t-37.5 -84.5q0 -106 119 -119
q-29 -119 -60 -174q-12 96 -43.5 178t-75.5 129q91 -120 107 -330l-29 -41q0 156 -51 287t-131 172q-5 9 2 18.5t22 12.5l70 12q19 3 21 13.5t-15 21.5l-59 39q-15 13 -13.5 26.5t19.5 20.5l64 28q14 4 19.5 11t0 14t-19.5 12l-64 27q-23 10 -20 29q11 6 14 16l35 61
q9 19 20.5 18t16.5 -20l20 -67q6 -21 18.5 -24t26.5 14l47 53q12 15 23 12.5t12 -22.5l4 -72q1 -21 14.5 -26.5t28.5 7.5l57 44q15 12 24 5.5t7 -26.5l-10 -70q-1 -20 10.5 -27.5t28.5 1.5l63 33q19 8 26.5 0t0.5 -29l-23 -64q-6 -20 3 -30t28 -4l70 14q20 6 26.5 -2
t-4.5 -27l-37 -59q-12 -17 -5.5 -29.5t26.5 -11.5l72 4q21 0 25 -11t-9 -24l-49 -53q-14 -13 -10.5 -26.5t24.5 -16.5l70 -12q43 -10 6 -39l-57 -39q-16 -10 -15 -24t21 -21l63 -27q12 -5 16.5 -12t0 -13.5t-16.5 -11.5zM745 336q106 0 212.5 65t183.5 162t125.5 212
t48.5 214q0 63 -41 101q24 -38 24 -84q0 -100 -47.5 -215.5t-126.5 -215.5q-85 -105 -188.5 -168t-212.5 -63q-59 0 -100 18q42 -26 122 -26z" />
    <glyph glyph-name="Agrave" unicode="&#xc0;" horiz-adv-x="1853" 
d="M1223 2083h346l272 -318h-252zM1892 569q33 -3 68 -28t47 -54q-68 -120 -121.5 -192.5t-116.5 -121.5t-133 -64t-163 -5l-117 -446l-283 158l103 372q-124 50 -308 148q-115 -178 -255 -276.5t-322 -98.5q-197 0 -311.5 110.5t-114.5 272.5q0 82 31 157.5t89.5 136
t151 96.5t205.5 36q179 0 397 -98l385 651q14 24 41.5 72t41.5 71t39.5 62t43.5 58.5t46 45t54.5 38t61 21.5t72.5 9q150 0 230.5 -108.5t41.5 -264.5l-266 -1008q22 -3 47.5 -0.5t50.5 6.5t55.5 20.5t61.5 42.5t69 72t78 109zM993 543q149 -82 246 -127l250 913l-21 8z
M301 227q14 0 32.5 3.5t51.5 17.5t66.5 37.5t76.5 68t82 103.5q-148 59 -258 59q-106 0 -158.5 -47.5t-52.5 -112.5q0 -61 49 -95t111 -34z" />
    <glyph glyph-name="Aacute" unicode="&#xc1;" horiz-adv-x="1853" 
d="M1757 2083h344l-364 -318h-252zM1892 569q33 -3 68 -28t47 -54q-68 -120 -121.5 -192.5t-116.5 -121.5t-133 -64t-163 -5l-117 -446l-283 158l103 372q-124 50 -308 148q-115 -178 -255 -276.5t-322 -98.5q-197 0 -311.5 110.5t-114.5 272.5q0 82 31 157.5t89.5 136
t151 96.5t205.5 36q179 0 397 -98l385 651q14 24 41.5 72t41.5 71t39.5 62t43.5 58.5t46 45t54.5 38t61 21.5t72.5 9q150 0 230.5 -108.5t41.5 -264.5l-266 -1008q22 -3 47.5 -0.5t50.5 6.5t55.5 20.5t61.5 42.5t69 72t78 109zM993 543q149 -82 246 -127l250 913l-21 8z
M301 227q14 0 32.5 3.5t51.5 17.5t66.5 37.5t76.5 68t82 103.5q-148 59 -258 59q-106 0 -158.5 -47.5t-52.5 -112.5q0 -61 49 -95t111 -34z" />
    <glyph glyph-name="Acircumflex" unicode="&#xc2;" horiz-adv-x="1853" 
d="M1849 2130l174 -363h-225l-90 150l-201 -150h-284l463 363h163zM1892 569q33 -3 68 -28t47 -54q-68 -120 -121.5 -192.5t-116.5 -121.5t-133 -64t-163 -5l-117 -446l-283 158l103 372q-124 50 -308 148q-115 -178 -255 -276.5t-322 -98.5q-197 0 -311.5 110.5
t-114.5 272.5q0 82 31 157.5t89.5 136t151 96.5t205.5 36q179 0 397 -98l385 651q14 24 41.5 72t41.5 71t39.5 62t43.5 58.5t46 45t54.5 38t61 21.5t72.5 9q150 0 230.5 -108.5t41.5 -264.5l-266 -1008q22 -3 47.5 -0.5t50.5 6.5t55.5 20.5t61.5 42.5t69 72t78 109zM993 543
q149 -82 246 -127l250 913l-21 8zM301 227q14 0 32.5 3.5t51.5 17.5t66.5 37.5t76.5 68t82 103.5q-148 59 -258 59q-106 0 -158.5 -47.5t-52.5 -112.5q0 -61 49 -95t111 -34z" />
    <glyph glyph-name="Atilde" unicode="&#xc3;" horiz-adv-x="1853" 
d="M1409 1772l-98 104q60 88 94 119q65 61 147 61q49 0 93 -19.5t81.5 -39t69.5 -19.5q29 0 59.5 19t51.5 53l98 -108q-22 -32 -34.5 -49t-37.5 -45t-47.5 -43t-55 -26.5t-67.5 -11.5q-49 0 -92.5 19.5t-80.5 39t-70 19.5q-27 0 -57.5 -20t-53.5 -53zM1892 569q33 -3 68 -28
t47 -54q-68 -120 -121.5 -192.5t-116.5 -121.5t-133 -64t-163 -5l-117 -446l-283 158l103 372q-124 50 -308 148q-115 -178 -255 -276.5t-322 -98.5q-197 0 -311.5 110.5t-114.5 272.5q0 82 31 157.5t89.5 136t151 96.5t205.5 36q179 0 397 -98l385 651q14 24 41.5 72
t41.5 71t39.5 62t43.5 58.5t46 45t54.5 38t61 21.5t72.5 9q150 0 230.5 -108.5t41.5 -264.5l-266 -1008q22 -3 47.5 -0.5t50.5 6.5t55.5 20.5t61.5 42.5t69 72t78 109zM993 543q149 -82 246 -127l250 913l-21 8zM301 227q14 0 32.5 3.5t51.5 17.5t66.5 37.5t76.5 68
t82 103.5q-148 59 -258 59q-106 0 -158.5 -47.5t-52.5 -112.5q0 -61 49 -95t111 -34z" />
    <glyph glyph-name="Adieresis" unicode="&#xc4;" horiz-adv-x="1853" 
d="M1432 1751q-66 0 -113 47t-47 113q0 67 47 114.5t113 47.5q67 0 114 -47t47 -115q0 -66 -47 -113t-114 -47zM1819 1751q-66 0 -113 47t-47 113q0 67 47 114.5t113 47.5q67 0 114 -47t47 -115q0 -66 -47 -113t-114 -47zM1892 569q33 -3 68 -28t47 -54
q-68 -120 -121.5 -192.5t-116.5 -121.5t-133 -64t-163 -5l-117 -446l-283 158l103 372q-124 50 -308 148q-115 -178 -255 -276.5t-322 -98.5q-197 0 -311.5 110.5t-114.5 272.5q0 82 31 157.5t89.5 136t151 96.5t205.5 36q179 0 397 -98l385 651q14 24 41.5 72t41.5 71
t39.5 62t43.5 58.5t46 45t54.5 38t61 21.5t72.5 9q150 0 230.5 -108.5t41.5 -264.5l-266 -1008q22 -3 47.5 -0.5t50.5 6.5t55.5 20.5t61.5 42.5t69 72t78 109zM993 543q149 -82 246 -127l250 913l-21 8zM301 227q14 0 32.5 3.5t51.5 17.5t66.5 37.5t76.5 68t82 103.5
q-148 59 -258 59q-106 0 -158.5 -47.5t-52.5 -112.5q0 -61 49 -95t111 -34z" />
    <glyph glyph-name="Aring" unicode="&#xc5;" horiz-adv-x="1853" 
d="M1749 2288q117 0 198 -81t81 -198q0 -116 -81 -197t-198 -81q-116 0 -197.5 81.5t-81.5 196.5q0 117 81.5 198t197.5 81zM1749 1905q43 0 73.5 30.5t30.5 73.5t-30.5 74t-73.5 31t-73.5 -31t-30.5 -74t30.5 -73.5t73.5 -30.5zM1892 569q33 -3 68 -28t47 -54
q-68 -120 -121.5 -192.5t-116.5 -121.5t-133 -64t-163 -5l-117 -446l-283 158l103 372q-124 50 -308 148q-115 -178 -255 -276.5t-322 -98.5q-197 0 -311.5 110.5t-114.5 272.5q0 82 31 157.5t89.5 136t151 96.5t205.5 36q179 0 397 -98l385 651q14 24 41.5 72t41.5 71
t39.5 62t43.5 58.5t46 45t54.5 38t61 21.5t72.5 9q150 0 230.5 -108.5t41.5 -264.5l-266 -1008q22 -3 47.5 -0.5t50.5 6.5t55.5 20.5t61.5 42.5t69 72t78 109zM993 543q149 -82 246 -127l250 913l-21 8zM301 227q14 0 32.5 3.5t51.5 17.5t66.5 37.5t76.5 68t82 103.5
q-148 59 -258 59q-106 0 -158.5 -47.5t-52.5 -112.5q0 -61 49 -95t111 -34z" />
    <glyph glyph-name="AE" unicode="&#xc6;" horiz-adv-x="2566" 
d="M2433 1018q-166 0 -291 98q1 -49 13 -94t27 -74.5t33 -54t29 -35t17 -14.5l-156 -232q-4 3 -11.5 9t-32 20.5t-51 25.5t-67 20t-81.5 9q-132 0 -212.5 -84t-80.5 -221q0 -136 81 -226.5t212 -90.5q68 0 125.5 25.5t95 69.5t58.5 98.5t19.5 117t-26.5 121.5l291 82
q56 -170 28 -317.5t-111.5 -257t-213.5 -172t-277 -62.5q-124 0 -231 45t-186 125l-78 -291l-283 158l103 372q-124 50 -308 148q-113 -174 -254 -269.5t-323 -95.5q-198 0 -312 106t-114 267q0 82 31 157.5t89.5 136t151 96.5t205.5 36q179 0 397 -98l385 651
q14 24 41.5 72t41.5 71t39.5 62t43.5 58.5t46 45t54.5 38t61 21.5t72.5 9q150 0 230.5 -108.5t41.5 -264.5l-96 -360q80 20 172 14q-21 55 -21 143q0 165 80 301q-60 170 -51 373l209 -29q-3 -85 12 -159q150 102 332 102q100 0 178 -30t123 -80.5t67.5 -108.5t22.5 -121
q0 -145 -107 -249.5t-284 -104.5zM993 543q149 -82 246 -127l250 913l-21 8zM301 236q14 0 31 2.5t51 15.5t67.5 34.5t77 65.5t82.5 103q-148 59 -258 59q-106 0 -158.5 -47.5t-52.5 -112.5q0 -61 48 -90.5t112 -29.5zM2413 1434q-115 0 -195 -86q87 -93 197 -93
q55 0 94 23.5t39 64.5q0 40 -38 65.5t-97 25.5z" />
    <glyph glyph-name="Ccedilla" unicode="&#xc7;" horiz-adv-x="1538" 
d="M571 -299l107 197q-151 36 -225 147t-74 281q0 102 29 247q-196 64 -302 203.5t-106 327.5q0 155 74 279.5t194 193.5l156 -227q-105 -53 -135 -168q-10 -37 -10 -80q0 -20 2 -40t14 -56t31.5 -66t59 -62t93.5 -51q47 133 109.5 257.5t144.5 239.5t172.5 200.5
t198.5 136.5t217 51q117 0 200.5 -56.5t121.5 -144.5t38 -196q0 -151 -84 -312.5t-245 -281.5q-257 -193 -619 -193h-6q-27 -111 -27 -202q0 -224 197 -224q68 0 152 26.5t177 79.5t187 147t164 214q33 -3 68 -28t47 -54q-153 -265 -362 -423.5t-451 -176.5l-39 -73
q54 -16 82 -47.5t28 -88.5q0 -84 -57 -140.5t-137.5 -74.5t-167 -9t-144.5 46l93 140q31 -16 67.5 -22.5t66 3.5t29.5 41q0 22 -16.5 32t-45 10.5t-67.5 -3.5zM1268 1389q-72 0 -158.5 -86.5t-162.5 -217.5t-138 -286q211 19 358 145q93 80 139 176.5t46 167.5q0 43 -20 72
t-64 29z" />
    <glyph glyph-name="Egrave" unicode="&#xc8;" horiz-adv-x="1310" 
d="M928 2101h344l272 -317h-250zM1178 1018q-166 0 -291 98q1 -49 13 -94t27 -74.5t33 -54t29 -35t17 -14.5l-156 -232q-4 3 -11.5 9t-32 20.5t-51 25.5t-67.5 20t-82 9q-132 0 -212.5 -84.5t-80.5 -222.5q0 -137 81 -230t218 -93q69 0 129 26.5t99.5 72t62 102t21 120.5
t-26.5 123l272 78q57 -171 30.5 -318.5t-109 -256.5t-211.5 -171.5t-277 -62.5q-129 0 -242 47.5t-191.5 128.5t-123.5 192t-45 234q0 134 53.5 252.5t140 197.5t198 120t224.5 30q-20 55 -20 143q0 165 80 301q-60 170 -51 373l209 -29q-3 -85 12 -159q150 102 332 102
q100 0 178 -30t123 -80.5t67.5 -108.5t22.5 -121q0 -145 -107 -249.5t-284 -104.5zM1157 1434q-114 0 -194 -86q87 -93 196 -93q55 0 94 23.5t39 64.5q0 40 -38 65.5t-97 25.5z" />
    <glyph glyph-name="Eacute" unicode="&#xc9;" horiz-adv-x="1310" 
d="M1440 2101h344l-367 -317h-250zM1178 1018q-166 0 -291 98q1 -49 13 -94t27 -74.5t33 -54t29 -35t17 -14.5l-156 -232q-4 3 -11.5 9t-32 20.5t-51 25.5t-67.5 20t-82 9q-132 0 -212.5 -84.5t-80.5 -222.5q0 -137 81 -230t218 -93q69 0 129 26.5t99.5 72t62 102t21 120.5
t-26.5 123l272 78q57 -171 30.5 -318.5t-109 -256.5t-211.5 -171.5t-277 -62.5q-129 0 -242 47.5t-191.5 128.5t-123.5 192t-45 234q0 134 53.5 252.5t140 197.5t198 120t224.5 30q-20 55 -20 143q0 165 80 301q-60 170 -51 373l209 -29q-3 -85 12 -159q150 102 332 102
q100 0 178 -30t123 -80.5t67.5 -108.5t22.5 -121q0 -145 -107 -249.5t-284 -104.5zM1157 1434q-114 0 -194 -86q87 -93 196 -93q55 0 94 23.5t39 64.5q0 40 -38 65.5t-97 25.5z" />
    <glyph glyph-name="Ecircumflex" unicode="&#xca;" horiz-adv-x="1310" 
d="M1528 2148l172 -362h-223l-91 149l-200 -149h-287l465 362h164zM1178 1018q-166 0 -291 98q1 -49 13 -94t27 -74.5t33 -54t29 -35t17 -14.5l-156 -232q-4 3 -11.5 9t-32 20.5t-51 25.5t-67.5 20t-82 9q-132 0 -212.5 -84.5t-80.5 -222.5q0 -137 81 -230t218 -93
q69 0 129 26.5t99.5 72t62 102t21 120.5t-26.5 123l272 78q57 -171 30.5 -318.5t-109 -256.5t-211.5 -171.5t-277 -62.5q-129 0 -242 47.5t-191.5 128.5t-123.5 192t-45 234q0 134 53.5 252.5t140 197.5t198 120t224.5 30q-20 55 -20 143q0 165 80 301q-60 170 -51 373
l209 -29q-3 -85 12 -159q150 102 332 102q100 0 178 -30t123 -80.5t67.5 -108.5t22.5 -121q0 -145 -107 -249.5t-284 -104.5zM1157 1434q-114 0 -194 -86q87 -93 196 -93q55 0 94 23.5t39 64.5q0 40 -38 65.5t-97 25.5z" />
    <glyph glyph-name="Edieresis" unicode="&#xcb;" horiz-adv-x="1310" 
d="M1116 1767q-66 0 -114 47t-48 113q0 67 48 114.5t114 47.5t114 -47.5t48 -114.5q0 -66 -48 -113t-114 -47zM1503 1767q-66 0 -114 47t-48 113q0 67 48 114.5t114 47.5t114 -47.5t48 -114.5q0 -66 -48 -113t-114 -47zM1178 1018q-166 0 -291 98q1 -49 13 -94t27 -74.5
t33 -54t29 -35t17 -14.5l-156 -232q-4 3 -11.5 9t-32 20.5t-51 25.5t-67.5 20t-82 9q-132 0 -212.5 -84.5t-80.5 -222.5q0 -137 81 -230t218 -93q69 0 129 26.5t99.5 72t62 102t21 120.5t-26.5 123l272 78q57 -171 30.5 -318.5t-109 -256.5t-211.5 -171.5t-277 -62.5
q-129 0 -242 47.5t-191.5 128.5t-123.5 192t-45 234q0 134 53.5 252.5t140 197.5t198 120t224.5 30q-20 55 -20 143q0 165 80 301q-60 170 -51 373l209 -29q-3 -85 12 -159q150 102 332 102q100 0 178 -30t123 -80.5t67.5 -108.5t22.5 -121q0 -145 -107 -249.5t-284 -104.5z
M1157 1434q-114 0 -194 -86q87 -93 196 -93q55 0 94 23.5t39 64.5q0 40 -38 65.5t-97 25.5z" />
    <glyph glyph-name="Igrave" unicode="&#xcc;" horiz-adv-x="1296" 
d="M803 526l297 738h-1l-1 -1h-1h-1l-1 -1h-1h-1l-1 -1h-1h-1h-1l-1 -1h-1h-1l-1 -1h-1h-1l-1 -1h-1h-1l-1 -1h-1h-1l-1 -1h-1h-1q-231 -73 -314 -115q-149 -77 -150 -180q0 -65 46.5 -94t97.5 -29v-267q-187 0 -303.5 105.5t-114.5 271.5q0 59 14.5 111.5t39 94.5t64 80.5
t81 67.5t100.5 58t111.5 50.5t124 46t129 42.5t135.5 43t135 45q130 137 299 137l59 -176q-4 -2 -11.5 -5.5t-29 -18.5t-41 -34.5t-43.5 -54.5t-41 -77l-401 -998q-53 -135 -122 -237.5t-137.5 -163t-147 -98.5t-144.5 -51t-137 -13q-121 0 -218.5 39t-157 105t-91 147
t-31.5 170q0 96 36.5 181.5t101 147.5t161 94.5t209.5 23.5v-271q-68 5 -116.5 -11t-71 -46t-32 -58.5t-9.5 -58.5q0 -79 60 -135.5t146 -56.5q136 0 244 118t199 340zM1024 2128h344l274 -318h-251z" />
    </font>
</defs>
</svg>
