<?xml version="1.0" standalone="no"?>
<!DOCTYPE svg PUBLIC "-//W3C//DTD SVG 1.1//EN" "http://www.w3.org/Graphics/SVG/1.1/DTD/svg11.dtd" >
<svg xmlns="http://www.w3.org/2000/svg" xmlns:xlink="http://www.w3.org/1999/xlink" version="1.1">
<metadata>
Created by FontForge 20170731 at Mon Aug 21 20:57:51 2023
 By Aleksey,,,
Copyright (C) 1999, Emigre, Inc. Designed by Sibylle Hagmann
</metadata>
<defs>
<font id="font__chollasans--700" horiz-adv-x="956" >
  <font-face 
    font-family="font__chollasans"
    font-weight="700"
    font-stretch="normal"
    units-per-em="2048"
    panose-1="2 11 8 0 0 0 0 0 0 0"
    ascent="1638"
    descent="-410"
    x-height="971"
    cap-height="1384"
    bbox="-199 -512 2157 1800"
    underline-thickness="40"
    underline-position="-312"
    unicode-range="U+0020-E000"
  />
<missing-glyph horiz-adv-x="1028" 
d="M1022 0h-1024v1024h1024v-1024zM18 1004v-984h983v984h-983z" />
    <glyph glyph-name=".notdef" horiz-adv-x="1028" 
d="M1022 0h-1024v1024h1024v-1024zM18 1004v-984h983v984h-983z" />
    <glyph glyph-name=".null" horiz-adv-x="0" 
 />
    <glyph glyph-name="nonmarkingreturn" horiz-adv-x="682" 
 />
    <glyph glyph-name="space" unicode=" " horiz-adv-x="446" 
 />
    <glyph glyph-name="exclam" unicode="!" horiz-adv-x="538" 
d="M375 1303v-771q0 -32 -25 -56.5t-57 -24.5h-47q-32 0 -57 24.5t-25 56.5v771q0 32 25 56.5t57 24.5h47q32 0 57 -24.5t25 -56.5zM375 205v-123q0 -32 -25 -57t-57 -25h-47q-32 0 -57 25t-25 57v123q0 32 25 57t57 25h47q32 0 57 -25t25 -57z" />
    <glyph glyph-name="quotedbl" unicode="&#x22;" horiz-adv-x="937" 
d="M815 1311v-13l-53 -389q-1 -24 -23 -43.5t-47 -19.5h-37q-24 0 -44 19t-25 44l-54 389q0 36 24.5 61t57.5 25h121q31 0 55.5 -21.5t24.5 -51.5zM408 1298l-56 -389q-1 -25 -22.5 -44t-46.5 -19h-37q-24 0 -44.5 19t-25.5 44l-53 389v13q0 30 25 51.5t57 21.5h121
q33 0 57.5 -25t24.5 -61z" />
    <glyph glyph-name="numbersign" unicode="#" horiz-adv-x="1361" 
d="M1309 932v-25q0 -32 -28.5 -57t-63.5 -25h-183l-26 -250h184q31 0 53.5 -20t22.5 -49q0 -2 -2 -6v-6l-4 -25q-6 -35 -32.5 -58.5t-58.5 -23.5h-182l-33 -305q-1 -32 -29 -57t-61 -25h-47q-32 0 -53 22.5t-21 59.5l33 305h-258l-33 -305q-1 -32 -29 -57t-61 -25h-47
q-32 0 -53 22.5t-21 59.5l33 305h-182q-32 0 -55 20.5t-23 49.5q0 2 2 6v6l4 25q6 35 32 58t58 23h185l24 250h-182q-31 0 -53.5 20.5t-22.5 49.5q0 2 2 6v6l4 25q6 35 32.5 58.5t58.5 23.5h182l31 289q4 35 30.5 58t59.5 23h47q32 0 52.5 -22t20.5 -59l-30 -289h258l30 289
q4 35 31 58t60 23h47q32 0 52.5 -22t20.5 -59l-30 -289h182q32 0 52 -23t20 -59zM797 575l26 250h-258l-24 -250h256z" />
    <glyph glyph-name="dollar" unicode="$" horiz-adv-x="989" 
d="M885 547v-291q0 -106 -76 -182q-74 -74 -180 -74h-49v-150q0 -25 -17.5 -42t-42.5 -17h-49q-25 0 -42 17t-17 42v150h-236q-35 0 -58.5 21t-23.5 53v114h318v410h-52q-104 0 -182 72q-74 74 -74 178v280q0 107 74 181q75 75 182 75h52v144q0 25 17 42t42 17h49
q25 0 42.5 -17t17.5 -42v-144h155q35 0 58.5 -20.5t23.5 -52.5v-115h-237v-410h49q109 0 182.5 -67.5t73.5 -171.5zM408 786h4v410h-4q-38 0 -65.5 -27t-27.5 -65v-225q0 -38 27.5 -65.5t65.5 -27.5zM674 281v225q0 38 -27 65t-65 27h-2v-410h2q38 0 65 27.5t27 65.5z" />
    <glyph glyph-name="percent" unicode="%" horiz-adv-x="1556" 
d="M1495 621v-455q0 -69 -55.5 -117.5t-134.5 -48.5h-148q-79 0 -134.5 48.5t-55.5 117.5v455q0 69 55.5 117t134.5 48h148q79 0 134.5 -48t55.5 -117zM1233 1298l-778 -1286q-19 -28 -54 -28q-19 0 -32 8l-21 14q-29 16 -29 53q0 16 9 31l778 1284q17 33 53 33q14 0 31 -10
l22 -15q29 -19 29 -53q0 -18 -8 -31zM590 1219v-455q0 -69 -56 -117.5t-135 -48.5h-147q-79 0 -135 48.5t-56 117.5v455q0 69 56.5 117t134.5 48h147q78 0 134.5 -48t56.5 -117zM1327 215v356q0 26 -18 44t-43 18h-70q-26 0 -43.5 -18t-17.5 -44v-356q0 -26 17.5 -43.5
t43.5 -17.5h70q25 0 43 17.5t18 43.5zM422 813v356q0 25 -18.5 43.5t-43.5 18.5h-69q-26 0 -44 -18.5t-18 -43.5v-356q0 -26 18 -43.5t44 -17.5h69q25 0 43.5 17.5t18.5 43.5z" />
    <glyph glyph-name="ampersand" unicode="&#x26;" horiz-adv-x="1064" 
d="M1059 598v-115q0 -32 -23.5 -52.5t-58.5 -20.5h-39v-154q0 -103 -83.5 -179.5t-190.5 -76.5h-279q-105 0 -182 74q-76 76 -76 182v393q0 54 40.5 99.5t106.5 52.5v6q-48 6 -88.5 52t-40.5 99v170q0 108 76 181q75 75 182 75h289q35 0 57.5 -20.5t22.5 -52.5v-115h-323
q-37 0 -65 -27t-28 -65v-123q0 -39 28.5 -65.5t72.5 -26.5h32q35 0 58.5 -21t23.5 -53v-41q0 -32 -23.5 -53t-58.5 -21h-59q-37 0 -64.5 -27t-27.5 -65v-327q0 -38 27.5 -65.5t64.5 -27.5h207q38 0 65 27.5t27 65.5v129h-51q-35 0 -58.5 20.5t-23.5 52.5v41q0 32 23.5 53
t58.5 21h381z" />
    <glyph glyph-name="quotesingle" unicode="'" horiz-adv-x="530" 
d="M408 1311v-13l-56 -389q-1 -25 -22.5 -44t-46.5 -19h-37q-24 0 -44.5 19t-25.5 44l-53 389v13q0 30 25 51.5t57 21.5h121q32 0 57 -21.5t25 -51.5z" />
    <glyph glyph-name="parenleft" unicode="(" horiz-adv-x="602" 
d="M500 -377q0 -32 -29 -51l-22 -14q-12 -9 -27 -9q-23 0 -60 29l-133 119q-45 42 -45 135v1417q0 51 9 82t34 53l135 119q35 27 58 27q14 0 26 -6l25 -15q29 -19 29 -45q0 -21 -11 -39l-94 -151v-1467l94 -151q11 -18 11 -33z" />
    <glyph glyph-name="parenright" unicode=")" horiz-adv-x="602" 
d="M418 1249v-1417q0 -93 -45 -135l-133 -119q-37 -29 -60 -29q-11 0 -26 9l-23 14q-29 19 -29 51q0 15 11 33l94 151v1467l-94 151q-11 18 -11 39q0 26 29 45l25 15q12 6 26 6q24 0 58 -27l135 -119q25 -22 34 -53t9 -82z" />
    <glyph glyph-name="asterisk" unicode="*" horiz-adv-x="950" 
d="M909 961v-13q0 -27 -19 -46t-48 -19l-258 26l202 -161q21 -15 21 -46q0 -28 -21 -49l-10 -10q-20 -20 -49 -20q-31 0 -45 20l-162 203l27 -258q0 -29 -19.5 -48.5t-46.5 -19.5h-12q-27 0 -48.5 20t-21.5 48l31 258l-164 -203q-14 -20 -43 -20t-49 20l-10 10
q-21 21 -21 49q0 31 21 46l201 161l-259 -26q-29 0 -47 19t-18 46v13q0 30 18 49.5t47 19.5l259 -29l-201 164q-21 15 -21 43t21 49l10 11q20 20 49 20t43 -20l164 -201l-29 258q0 28 20.5 47t47.5 19h12q27 0 46.5 -18.5t19.5 -47.5l-27 -258l162 201q14 20 45 20
q29 0 49 -20l10 -11q21 -21 21 -49t-21 -43l-202 -164l258 29q28 0 47.5 -21t19.5 -48z" />
    <glyph glyph-name="plus" unicode="+" horiz-adv-x="1024" 
d="M942 584v-43q0 -32 -23.5 -53t-58.5 -21h-244v-264q0 -35 -23 -58.5t-58 -23.5h-48q-32 0 -56.5 25t-24.5 57v264h-242q-35 0 -58.5 21t-23.5 53v43q0 32 23 51.5t59 19.5h242v244q0 32 24.5 57t56.5 25h48q35 0 58 -23.5t23 -58.5v-244h244q36 0 59 -19.5t23 -51.5z" />
    <glyph glyph-name="comma" unicode="," horiz-adv-x="487" 
d="M367 219v-170q0 -67 -35 -129l-107 -184q-9 -19 -32 -19q-7 0 -19 4l-16 11q-17 10 -17 30q0 9 4 21l68 147q4 12 4 31q0 17 -31 33q-65 33 -65 86v139q0 32 25 57t57 25h82q32 0 57 -25t25 -57z" />
    <glyph glyph-name="hyphen" unicode="-" horiz-adv-x="733" 
d="M672 584v-45q0 -29 -22.5 -50.5t-51.5 -21.5h-465q-29 0 -50.5 21.5t-21.5 50.5v45q0 29 21.5 50t50.5 21h465q30 0 52 -21t22 -50z" />
    <glyph glyph-name="period" unicode="." horiz-adv-x="487" 
d="M367 219v-137q0 -32 -25 -57t-57 -25h-82q-32 0 -57 25t-25 57v137q0 32 25 57t57 25h82q32 0 57 -25t25 -57z" />
    <glyph glyph-name="slash" unicode="/" horiz-adv-x="673" 
d="M674 1329q0 -14 -6 -26l-486 -1334q-18 -47 -67 -47q-11 0 -27 4l-41 15q-21 8 -34 26t-13 41q0 17 4 29l488 1333q18 47 67 47q11 0 27 -4l39 -16q22 -7 35.5 -27t13.5 -41z" />
    <glyph glyph-name="zero" unicode="0" horiz-adv-x="974" 
d="M852 1128v-872q0 -106 -76 -182q-74 -74 -180 -74h-217q-105 0 -182 74q-74 77 -74 182v872q0 107 74 181q75 75 182 75h217q108 0 180 -75q76 -73 76 -181zM641 281v823q0 38 -27 65t-65 27h-123q-38 0 -65 -27t-27 -65v-823q0 -38 27 -65.5t65 -27.5h123q38 0 65 27.5
t27 65.5z" />
    <glyph glyph-name="one" unicode="1" horiz-adv-x="974" 
d="M637 1303v-1221q0 -32 -25 -57t-57 -25h-49q-33 0 -56.5 23.5t-23.5 58.5v985l-107 -72q-36 -22 -69 -22q-29 0 -48.5 19t-19.5 48q0 32 31 68l227 246q30 30 66 30h49q32 0 57 -24.5t25 -56.5z" />
    <glyph glyph-name="two" unicode="2" horiz-adv-x="974" 
d="M846 115v-41q0 -32 -23.5 -53t-58.5 -21h-594v440q0 83 37.5 145t109.5 115l222 160q57 49 57 103v141q0 38 -27 65t-65 27h-318v115q0 32 23.5 52.5t58.5 20.5h283q108 0 180 -75q76 -73 76 -181v-208q0 -59 -31.5 -114.5t-75.5 -86.5l-241 -176q-78 -57 -78 -158v-197
h383q35 0 58.5 -20.5t23.5 -52.5z" />
    <glyph glyph-name="three" unicode="3" horiz-adv-x="974" 
d="M784 547v-291q0 -107 -75 -182q-77 -74 -183 -74h-321q-36 0 -60 21t-24 53v114h360q37 0 64.5 27.5t27.5 65.5v225q0 38 -27.5 65t-64.5 27h-141q-35 0 -58.5 21t-23.5 53v41q0 32 23.5 52.5t58.5 20.5h123q37 0 64.5 27.5t27.5 65.5v225q0 38 -27.5 65t-64.5 27h-316
v115q0 32 22.5 52.5t57.5 20.5h281q107 0 182 -75q76 -73 76 -181v-272q0 -49 -36.5 -96.5t-92.5 -54.5v-7q66 -7 106.5 -52t40.5 -99z" />
    <glyph glyph-name="four" unicode="4" horiz-adv-x="974" 
d="M932 502v-41q0 -32 -23.5 -53t-58.5 -21h-107v-305q0 -32 -24.5 -57t-56.5 -25h-48q-32 0 -57 25t-25 57v305h-378q-36 0 -66.5 26t-30.5 58v25q0 16 27 77q4 10 6 13l365 731q31 67 98 67h100q35 0 62.5 -26.5t27.5 -59.5v-723h107q35 0 58.5 -20.5t23.5 -52.5z
M561 1139h-4q-2 -8 -14 -47.5t-33 -98t-39 -94.5l-160 -324h221v295q0 49 7 115.5t13.5 108.5t8.5 45z" />
    <glyph glyph-name="five" unicode="5" horiz-adv-x="974" 
d="M809 530v-274q0 -106 -76 -182q-74 -74 -180 -74h-305q-35 0 -58.5 21t-23.5 53v114h340q38 0 65 27.5t27 65.5v225q0 38 -27 65t-65 27h-328v682q0 49 32 76.5t87 27.5h395q35 0 58.5 -20.5t23.5 -52.5v-115h-385v-410h164q108 0 180 -75q76 -73 76 -181z" />
    <glyph glyph-name="six" unicode="6" horiz-adv-x="974" 
d="M870 530v-274q0 -107 -75 -182q-74 -74 -181 -74h-215q-105 0 -182 74q-76 76 -76 182v872q0 108 76 181q75 75 182 75h275q35 0 58.5 -20.5t23.5 -52.5v-115h-310q-38 0 -66 -27t-28 -65v-354q42 36 111 36h149q108 0 183 -75q75 -72 75 -181zM659 281v225q0 38 -27 65
t-65 27h-123q-38 0 -65 -27t-27 -65v-225q0 -38 27 -65.5t65 -27.5h123q38 0 65 27.5t27 65.5z" />
    <glyph glyph-name="seven" unicode="7" horiz-adv-x="974" 
d="M827 1311v-31q0 -28 -14 -68l-377 -1161q-7 -26 -29 -41.5t-49 -15.5q-10 0 -26 4l-45 14q-56 18 -56 76q0 7 5 27l350 1081h-480v115q0 32 23.5 52.5t58.5 20.5h557q35 0 58.5 -20.5t23.5 -52.5z" />
    <glyph glyph-name="eight" unicode="8" horiz-adv-x="974" 
d="M852 522v-266q0 -106 -76 -182q-74 -74 -180 -74h-217q-105 0 -182 74q-74 77 -74 182v266q0 51 43.5 103t103.5 69v6q-56 9 -94 68q-35 59 -35 104v256q0 107 74 181q75 75 182 75h181q108 0 180 -75q76 -73 76 -181v-256q0 -46 -37 -104q-35 -59 -92 -68v-6
q60 -17 103.5 -69t43.5 -103zM623 879v225q0 38 -27.5 65t-65.5 27h-86q-38 0 -65 -27t-27 -65v-225q0 -38 27 -65.5t65 -27.5h86q38 0 65.5 27.5t27.5 65.5zM641 281v225q0 38 -27 65t-65 27h-123q-38 0 -65 -27t-27 -65v-225q0 -38 27 -65.5t65 -27.5h123q38 0 65 27.5
t27 65.5z" />
    <glyph glyph-name="nine" unicode="9" horiz-adv-x="974" 
d="M842 1128v-872q0 -106 -76 -182q-77 -74 -182 -74h-283q-35 0 -57.5 21t-22.5 53v114h318q37 0 64.5 27.5t27.5 65.5v354q-43 -37 -111 -37h-151q-106 0 -183 74q-73 76 -73 182v274q0 108 73 181q75 75 183 75h217q108 0 180 -75q76 -73 76 -181zM631 879v225
q0 38 -27 65t-65 27h-123q-38 0 -65 -27t-27 -65v-225q0 -38 27 -65.5t65 -27.5h123q38 0 65 27.5t27 65.5z" />
    <glyph glyph-name="colon" unicode=":" horiz-adv-x="487" 
d="M367 889v-137q0 -32 -25 -57t-57 -25h-82q-32 0 -57 25t-25 57v137q0 32 25 57t57 25h82q32 0 57 -25t25 -57zM367 219v-137q0 -32 -25 -57t-57 -25h-82q-32 0 -57 25t-25 57v137q0 32 25 57t57 25h82q32 0 57 -25t25 -57z" />
    <glyph glyph-name="semicolon" unicode=";" horiz-adv-x="487" 
d="M367 889v-137q0 -32 -25 -57t-57 -25h-82q-32 0 -57 25t-25 57v137q0 32 25 57t57 25h82q32 0 57 -25t25 -57zM367 219v-170q0 -67 -35 -129l-107 -184q-9 -19 -32 -19q-7 0 -19 4l-16 11q-17 10 -17 30q0 9 4 21l68 147q4 12 4 31q0 17 -31 33q-65 35 -65 88v137
q0 32 25 57t57 25h82q32 0 57 -25t25 -57z" />
    <glyph glyph-name="less" unicode="&#x3c;" horiz-adv-x="1067" 
d="M999 270q0 -17 -8 -30l-20 -39q-21 -41 -74 -41q-15 0 -33 6l-751 311q-45 17 -45 62v34q0 51 45 68l753 311q12 6 33 6q50 0 70 -36l22 -43q8 -13 8 -37q0 -43 -47 -64l-551 -217l551 -221q22 -7 34.5 -26.5t12.5 -43.5z" />
    <glyph glyph-name="equal" unicode="=" horiz-adv-x="1024" 
d="M958 770v-41q0 -32 -23 -53t-58 -21h-730q-35 0 -58 21t-23 53v41q0 32 23 53t58 21h730q35 0 58 -21t23 -53zM958 393v-41q0 -32 -23 -52.5t-58 -20.5h-730q-35 0 -58 20.5t-23 52.5v41q0 32 23 53t58 21h730q35 0 58 -21t23 -53z" />
    <glyph glyph-name="greater" unicode="&#x3e;" horiz-adv-x="1067" 
d="M999 573v-34q0 -45 -45 -62l-751 -311q-18 -6 -33 -6q-53 0 -74 41l-20 39q-8 13 -8 30q0 24 12.5 43.5t34.5 26.5l551 221l-551 217q-47 21 -47 64q0 24 8 37l22 43q20 36 70 36q21 0 33 -6l753 -311q45 -17 45 -68z" />
    <glyph glyph-name="question" unicode="?" horiz-adv-x="811" 
d="M709 1128v-274q0 -106 -76 -182q-74 -74 -180 -74h-68v-66q0 -33 -24.5 -57t-59.5 -24h-47q-33 0 -56.5 23t-23.5 58v173q0 35 23.5 58t56.5 23h152q38 0 65 27.5t27 65.5v225q0 38 -27 65t-65 27h-324v115q0 32 23.5 52.5t58.5 20.5h289q108 0 180 -75q76 -73 76 -181z
M385 205v-123q0 -32 -25 -57t-57 -25h-47q-32 0 -57 25t-25 57v123q0 32 25 57t57 25h47q32 0 57 -25t25 -57z" />
    <glyph glyph-name="at" unicode="@" horiz-adv-x="1427" 
d="M1305 1194v-737q0 -78 -58.5 -134.5t-140.5 -56.5h-225l-41 56q-18 24 -43 24q-23 0 -62 -33q-36 -28 -63.5 -40.5t-63.5 -12.5h-26q-85 0 -139 62.5t-54 154.5v123q0 92 54 153.5t139 61.5h26q36 0 63.5 -12.5t63.5 -40.5q39 -33 62 -33q32 0 32 41v117q0 37 -27 64.5
t-65 27.5h-252v98q0 19 16 34t40 15h223q109 0 165 -55.5t56 -150.5v-506h107q29 0 49 19t20 48v701q0 29 -20 48t-51 19h-754q-31 0 -50.5 -19t-19.5 -48v-979q0 -29 19.5 -48.5t50.5 -19.5h682v-63q0 -32 -21.5 -52t-58.5 -20h-616q-82 0 -140.5 56t-58.5 134v1004
q0 79 58.5 134.5t140.5 55.5h784q84 0 141.5 -55t57.5 -135zM829 498v80q0 36 -23 60t-58 24h-121q-35 0 -58.5 -24.5t-23.5 -59.5v-80q0 -32 25 -58t57 -26h121q34 0 57.5 25.5t23.5 58.5z" />
    <glyph glyph-name="A" unicode="A" horiz-adv-x="976" 
d="M926 84q0 -26 -17.5 -49t-42.5 -29l-45 -10q-6 0 -10 -2h-8q-29 0 -49.5 16t-26.5 43l-82 334h-313l-82 -334q-6 -26 -27 -42.5t-47 -16.5h-10q-4 2 -10 2l-45 10q-24 5 -42 27.5t-18 48.5q0 16 2 20l293 1223q14 59 88 59h182l308 -1282q2 -4 2 -18zM375 575h227
l-59 252q-18 75 -35 224q-14 127 -16 153h-7q-31 -289 -51 -377z" />
    <glyph glyph-name="B" unicode="B" horiz-adv-x="1017" 
d="M895 516v-278q0 -97 -74.5 -167.5t-189.5 -70.5h-477v1305q0 36 20 57.5t55 21.5h68l51 -75q13 -19 33 -19t59 33q42 35 76.5 51.5t81.5 16.5h23q104 0 167.5 -71.5t63.5 -178.5v-281q0 -55 -39 -103t-88 -59v-6q75 -6 122.5 -52.5t47.5 -123.5zM641 868v246q0 32 -25 57
t-57 25h-113q-32 0 -56.5 -25t-24.5 -57v-328h194q32 0 57 25t25 57zM684 270v246q0 32 -25 57t-57 25h-237v-410h237q32 0 57 25t25 57z" />
    <glyph glyph-name="C" unicode="C" horiz-adv-x="839" 
d="M817 188v-114q0 -32 -23.5 -53t-58.5 -21h-325q-106 0 -183 74q-73 76 -73 182v872q0 108 73 181q75 75 183 75h276q35 0 58.5 -20.5t23.5 -52.5v-115h-311q-38 0 -65 -27t-27 -65v-823q0 -38 27 -65.5t65 -27.5h360z" />
    <glyph glyph-name="D" unicode="D" horiz-adv-x="1062" 
d="M909 1143v-897q0 -102 -75 -174q-78 -72 -183 -72h-497v1309q0 29 19.5 52t53.5 23h70l51 -75q13 -19 33 -19q19 0 63 33q50 35 89 51.5t85 16.5h64q102 0 164.5 -71.5t62.5 -176.5zM698 274v836q0 35 -25.5 60.5t-60.5 25.5h-161q-35 0 -60.5 -25.5t-25.5 -60.5v-922
h247q35 0 60.5 25.5t25.5 60.5z" />
    <glyph glyph-name="E" unicode="E" horiz-adv-x="890" 
d="M829 115v-41q0 -32 -22 -53t-57 -21h-596v1384h649v-114q0 -32 -23.5 -53t-58.5 -21h-356v-410h309q35 0 58.5 -20.5t23.5 -52.5v-41q0 -32 -23.5 -53t-58.5 -21h-309v-410h385q35 0 57 -20.5t22 -52.5z" />
    <glyph glyph-name="F" unicode="F" horiz-adv-x="839" 
d="M803 1384v-114q0 -32 -23.5 -53t-58.5 -21h-356v-410h309q35 0 58.5 -20.5t23.5 -52.5v-39q0 -32 -23.5 -54t-58.5 -22h-309v-516q0 -32 -25 -57t-57 -25h-47q-32 0 -57 25t-25 57v1302h649z" />
    <glyph glyph-name="G" unicode="G" horiz-adv-x="1024" 
d="M911 786v-530q0 -107 -75 -182q-74 -74 -181 -74h-245q-106 0 -183 74q-73 76 -73 182v872q0 108 73 181q75 75 183 75h376q35 0 58.5 -20.5t23.5 -52.5v-115h-411q-38 0 -65 -27t-27 -65v-823q0 -38 27 -65.5t65 -27.5h151q38 0 65 27.5t27 65.5v317h-133
q-35 0 -58.5 21t-23.5 53v41q0 32 23.5 52.5t58.5 20.5h344z" />
    <glyph glyph-name="H" unicode="H" horiz-adv-x="1081" 
d="M928 1384v-1302q0 -32 -25 -57t-57 -25h-47q-32 0 -57 25t-25 57v516h-352v-516q0 -32 -25 -57t-57 -25h-47q-32 0 -57 25t-25 57v1221q0 32 25 56.5t57 24.5h47q32 0 57 -24.5t25 -56.5v-517h352v517q0 32 25 56.5t57 24.5h129z" />
    <glyph glyph-name="I" unicode="I" horiz-adv-x="559" 
d="M385 1303v-1221q0 -32 -25 -57t-57 -25h-47q-32 0 -57 25t-25 57v1221q0 32 25 56.5t57 24.5h47q32 0 57 -24.5t25 -56.5z" />
    <glyph glyph-name="J" unicode="J" horiz-adv-x="559" 
d="M385 1303v-1260q0 -93 -61 -149l-174 -166q-32 -29 -64 -29q-25 0 -41 16l-10 11q-27 27 -27 53q0 25 17 49l110 137q39 42 39 96v1242q0 32 25 56.5t57 24.5h47q32 0 57 -24.5t25 -56.5z" />
    <glyph glyph-name="K" unicode="K" horiz-adv-x="972" 
d="M973 109q0 -43 -29 -66l-35 -31q-21 -18 -53 -18q-37 0 -63 29l-428 503v-444q0 -32 -25 -57t-57 -25h-47q-32 0 -57 25t-25 57v1221q0 32 25 56.5t57 24.5h129v-510l383 486q26 33 63 33q25 0 47 -19l103 -80l-467 -592l460 -544q19 -22 19 -49z" />
    <glyph glyph-name="L" unicode="L" horiz-adv-x="819" 
d="M836 115v-41q0 -32 -23.5 -53t-58.5 -21h-600v1303q0 32 25 56.5t57 24.5h129v-1196h389q35 0 58.5 -20.5t23.5 -52.5z" />
    <glyph glyph-name="M" unicode="M" horiz-adv-x="1175" 
d="M1022 1384v-1302q0 -32 -25 -57t-57 -25h-47q-32 0 -57 25t-25 57v915q-5 -41 -43 -110l-131 -242h-55q-40 0 -66 43l-108 199q-38 69 -43 110v-915q0 -32 -25 -57t-57 -25h-47q-32 0 -57 25t-25 57v1218q0 38 19.5 61t53.5 23h62q46 0 73 -49l226 -409l225 409
q27 49 74 49h135z" />
    <glyph glyph-name="N" unicode="N" horiz-adv-x="1093" 
d="M940 1384v-1300q0 -38 -19 -61t-53 -23h-45q-30 0 -55 20.5t-37 47.5l-295 639q-40 101 -43 108q-4 17 -15.5 51.5t-12.5 38.5v-823q0 -32 -25 -57t-57 -25h-47q-32 0 -57 25t-25 57v1218q0 38 19.5 61t53.5 23h62q50 0 71 -47l320 -719q44 -97 49 -151v836q0 35 20 58
t50 23h141z" />
    <glyph glyph-name="O" unicode="O" horiz-adv-x="1099" 
d="M946 1128v-872q0 -106 -76 -182q-74 -74 -180 -74h-280q-106 0 -183 74q-73 76 -73 182v872q0 108 73 181q75 75 183 75h280q108 0 180 -75q76 -73 76 -181zM735 281v823q0 38 -27 65t-65 27h-186q-38 0 -65 -27t-27 -65v-823q0 -38 27 -65.5t65 -27.5h186q38 0 65 27.5
t27 65.5z" />
    <glyph glyph-name="P" unicode="P" horiz-adv-x="931" 
d="M868 1141v-287q0 -107 -75 -182q-74 -74 -181 -74h-247v-516q0 -32 -25 -57t-57 -25h-47q-32 0 -57 25t-25 57v1223q0 36 20 57.5t55 21.5h68l51 -75q13 -19 33 -19t59 33q42 35 76.5 51.5t81.5 16.5h39q104 0 167.5 -71.5t63.5 -178.5zM657 868v246q0 32 -25 57t-57 25
h-129q-32 0 -56.5 -25t-24.5 -57v-328h210q32 0 57 25t25 57z" />
    <glyph glyph-name="Q" unicode="Q" horiz-adv-x="1103" 
d="M1098 -72q0 -31 -15 -43l-18 -16q-19 -16 -39 -16q-21 0 -43 16l-192 151q-39 -20 -97 -20h-284q-106 0 -183 74q-73 76 -73 182v872q0 108 73 181q75 75 183 75h280q108 0 180 -75q76 -73 76 -181v-872q0 -52 -18 -96l155 -193q15 -15 15 -39zM735 281v823q0 38 -27 65
t-65 27h-186q-38 0 -65 -27t-27 -65v-823q0 -38 27 -65.5t65 -27.5h186q38 0 65 27.5t27 65.5z" />
    <glyph glyph-name="R" unicode="R" horiz-adv-x="1001" 
d="M965 94q0 -53 -50 -74l-43 -20q-13 -8 -32 -8q-56 0 -76 51l-250 555h-149v-516q0 -32 -25 -57t-57 -25h-47q-32 0 -57 25t-25 57v1223q0 36 20 57.5t55 21.5h68l51 -75q13 -19 33 -19t59 33q42 35 76.5 51.5t81.5 16.5h39q104 0 167.5 -71.5t63.5 -178.5v-293
q0 -72 -35.5 -132.5t-97.5 -92.5l223 -496q7 -18 7 -33zM657 868v246q0 32 -25 57t-57 25h-129q-32 0 -56.5 -25t-24.5 -57v-328h210q32 0 57 25t25 57z" />
    <glyph glyph-name="S" unicode="S" horiz-adv-x="892" 
d="M799 530v-274q0 -106 -76 -182q-74 -74 -180 -74h-383q-35 0 -58.5 21t-23.5 53v114h418q38 0 65 27.5t27 65.5v225q0 38 -27 65t-65 27h-146q-105 0 -182 74q-74 77 -74 182v274q0 107 74 181q75 75 182 75h307q35 0 58.5 -20.5t23.5 -52.5v-115h-342q-38 0 -65 -27
t-27 -65v-225q0 -38 27 -65.5t65 -27.5h146q108 0 180 -75q76 -73 76 -181z" />
    <glyph glyph-name="T" unicode="T" horiz-adv-x="825" 
d="M846 1311v-115h-328v-1114q0 -32 -25 -57t-57 -25h-47q-32 0 -57 25t-25 57v1114h-327v115q0 32 23 52.5t58 20.5h703q35 0 58.5 -20.5t23.5 -52.5z" />
    <glyph glyph-name="U" unicode="U" horiz-adv-x="1099" 
d="M946 1303v-1227q0 -29 -20 -52.5t-54 -23.5h-69l-49 74q-9 16 -37 16q-13 0 -60 -29q-55 -36 -95 -51.5t-95 -15.5h-55q-115 0 -186.5 71t-71.5 179v1059q0 32 25 56.5t57 24.5h47q32 0 57 -24.5t25 -56.5v-1029q0 -35 25.5 -60.5t60.5 -25.5h198q35 0 60.5 25.5
t25.5 60.5v1029q0 32 25 56.5t57 24.5h47q32 0 57 -24.5t25 -56.5z" />
    <glyph glyph-name="V" unicode="V" horiz-adv-x="978" 
d="M928 1296q0 -14 -2 -18l-279 -1163q-11 -43 -50 -79t-77 -36h-61q-38 0 -77 36t-50 79l-279 1163q-2 4 -2 18q0 29 18.5 52.5t45.5 29.5l45 11q6 0 10 2h8q30 0 52 -17.5t28 -46.5l166 -690q30 -135 45 -270q16 -140 18 -164h5q2 24 18 164q14 127 45 270l166 690
q6 29 28 46.5t52 17.5h8q4 -2 10 -2l45 -11q27 -6 45.5 -29.5t18.5 -52.5z" />
    <glyph glyph-name="W" unicode="W" horiz-adv-x="1445" 
d="M1374 1296v-6q-2 -2 -2 -6l-221 -1167q-7 -49 -42.5 -83t-74.5 -34h-47q-35 0 -68.5 31t-41.5 65l-84 297q-20 82 -39 187q-22 125 -29 151h-4q-1 -11 -29 -151q-19 -105 -39 -187l-84 -297q-8 -34 -41.5 -65t-68.5 -31h-47q-39 0 -74.5 34t-42.5 83l-221 1167v6l-2 6
q0 31 17.5 54.5t47.5 29.5l39 9q6 0 10 2h9q30 0 50.5 -18.5t26.5 -49.5l107 -563q27 -155 51 -350q15 -120 21 -203h4q3 11 5.5 30t8.5 58.5t12 79.5q22 124 45 217l90 326q15 61 76 61h62q60 0 75 -61l91 -326q19 -66 43 -217q26 -146 28 -168h4q1 15 21 201
q31 254 51 352l107 563q6 31 26.5 49.5t50.5 18.5h9q4 -2 10 -2l39 -9q30 -6 47.5 -29.5t17.5 -54.5z" />
    <glyph glyph-name="X" unicode="X" horiz-adv-x="929" 
d="M899 98q0 -50 -45 -73l-41 -21q-16 -8 -37 -8q-53 0 -74 43l-237 450l-238 -450q-21 -43 -73 -43q-21 0 -37 8l-41 21q-45 23 -45 75q0 18 10 35l305 580l-280 534q-11 18 -11 33q0 55 45 78l41 22q18 11 35 11q52 0 76 -47l213 -404l213 404q24 47 76 47q16 0 34 -11
l41 -22q45 -26 45 -78q0 -16 -10 -33l-280 -534l305 -580q10 -23 10 -37z" />
    <glyph glyph-name="Y" unicode="Y" horiz-adv-x="849" 
d="M829 1286q0 -14 -10 -37l-289 -555v-612q0 -32 -24.5 -57t-56.5 -25h-48q-32 0 -57 25t-25 57v612l-288 555q-11 18 -11 33q0 57 43 78l43 22q18 11 37 11q54 0 74 -45l209 -400l207 400q20 45 74 45q18 0 36 -11l43 -22q43 -21 43 -74z" />
    <glyph glyph-name="Z" unicode="Z" horiz-adv-x="894" 
d="M831 188v-114q0 -32 -23 -53t-58 -21h-596q-32 0 -57 25t-25 57v29q0 21 26 79l463 1006h-463v115q0 32 23.5 52.5t58.5 20.5h551q35 0 58.5 -20.5t23.5 -52.5v-23q0 -29 -31 -96l-460 -1004h509z" />
    <glyph glyph-name="bracketleft" unicode="[" horiz-adv-x="614" 
d="M614 -315v-41q0 -32 -23.5 -53t-58.5 -21h-401v1946h401q35 0 58.5 -21t23.5 -53v-41q0 -32 -23.5 -53t-58.5 -21h-190v-1569h190q35 0 58.5 -20.5t23.5 -52.5z" />
    <glyph glyph-name="backslash" unicode="\" horiz-adv-x="673" 
d="M674 8q0 -23 -13 -41t-34 -26l-41 -15q-16 -4 -27 -4q-49 0 -67 47l-486 1334q-6 12 -6 26q0 21 13.5 41t35.5 27l39 16q16 4 27 4q49 0 67 -47l488 -1333q4 -12 4 -29z" />
    <glyph glyph-name="bracketright" unicode="]" horiz-adv-x="614" 
d="M0 -356v41q0 32 23.5 52.5t58.5 20.5h190v1569h-190q-35 0 -58.5 21t-23.5 53v41q0 32 23.5 53t58.5 21h401v-1946h-401q-35 0 -58.5 21t-23.5 53z" />
    <glyph glyph-name="asciicircum" unicode="^" horiz-adv-x="962" 
d="M922 713q0 -46 -39 -66l-39 -22q-22 -11 -39 -11q-45 0 -68 39l-256 441l-256 -441q-23 -39 -67 -39q-17 0 -39 11l-37 22q-41 24 -41 70q0 13 12 37l344 589q27 41 72 41h27q42 0 69 -41l346 -589q11 -22 11 -41z" />
    <glyph glyph-name="underscore" unicode="_" horiz-adv-x="1093" 
d="M1073 -106v-29q0 -45 -51 -45h-950q-52 0 -52 45v29q0 45 52 45h950q51 0 51 -45z" />
    <glyph glyph-name="grave" unicode="`" horiz-adv-x="614" 
d="M508 1126q0 -21 -10 -34l-6 -9q-17 -26 -52 -26q-17 0 -34 10l-265 152q-35 21 -35 65q0 28 15 49l14 21q27 37 70 37q25 0 45 -17l233 -196q25 -22 25 -52z" />
    <glyph glyph-name="a" unicode="a" horiz-adv-x="921" 
d="M799 731v-655q0 -29 -20 -52.5t-54 -23.5h-70l-49 72q-12 18 -37 18q-20 0 -59 -33t-73 -48t-81 -15h-28q-104 0 -172 74t-68 176v135q0 103 68 174q68 74 172 74h28q48 0 81.5 -16t72.5 -52q39 -33 59 -33q19 0 19 35v141q0 33 -23.5 56.5t-58.5 23.5h-344v127
q0 29 22 45.5t58 16.5h295q127 0 194.5 -65.5t67.5 -174.5zM588 276v68q0 37 -25.5 62.5t-62.5 25.5h-113q-37 0 -62.5 -25.5t-25.5 -62.5v-68q0 -37 25.5 -62.5t62.5 -25.5h113q37 0 62.5 25.5t25.5 62.5z" />
    <glyph glyph-name="b" unicode="b" 
d="M834 729v-485q0 -102 -68 -176t-172 -74h-29q-47 0 -80 15t-73 48q-39 33 -60 33q-25 0 -37 -18l-49 -72h-69q-34 0 -54 23.5t-20 52.5v1227q0 32 25 56.5t57 24.5h129v-473q0 -34 18 -34q22 0 60 32q39 36 72 52t81 16h29q104 0 172 -74q68 -71 68 -174zM623 276v418
q0 37 -25.5 62.5t-62.5 25.5h-113q-37 0 -62.5 -25.5t-25.5 -62.5v-418q0 -37 25.5 -62.5t62.5 -25.5h113q37 0 62.5 25.5t25.5 62.5z" />
    <glyph glyph-name="c" unicode="c" horiz-adv-x="751" 
d="M705 188v-114q0 -32 -23.5 -53t-58.5 -21h-244q-105 0 -182 74q-74 77 -74 182v459q0 106 74 180q76 76 182 76h221q35 0 58.5 -21t23.5 -53v-115h-256q-38 0 -65 -27t-27 -65v-409q0 -38 27 -65.5t65 -27.5h279z" />
    <glyph glyph-name="d" unicode="d" 
d="M834 1384v-1308q0 -29 -20 -52.5t-54 -23.5h-70l-49 72q-12 18 -37 18q-20 0 -59 -33t-73 -48t-81 -15h-29q-104 0 -172 74q-67 73 -67 176v485q0 104 67 174q68 74 172 74h29q48 0 81.5 -16t72.5 -52q38 -32 59 -32q19 0 19 34v392q0 32 25 56.5t57 24.5h129zM623 276
v418q0 37 -25.5 62.5t-62.5 25.5h-113q-37 0 -62.5 -25.5t-25.5 -62.5v-418q0 -37 25.5 -62.5t62.5 -25.5h113q37 0 62.5 25.5t25.5 62.5z" />
    <glyph glyph-name="e" unicode="e" horiz-adv-x="911" 
d="M834 715v-183q0 -54 -36.5 -90t-90.5 -36h-373v-134q0 -36 24 -60t60 -24h311v-114q0 -32 -23.5 -53t-58.5 -21h-268q-105 0 -182 74q-74 77 -74 182v459q0 106 74 180q76 76 182 76h199q107 0 180 -76q76 -73 76 -180zM334 575h289v125q0 32 -25 57t-57 25h-125
q-32 0 -57 -25t-25 -57v-125z" />
    <glyph glyph-name="f" unicode="f" horiz-adv-x="645" 
d="M727 1384v-114q0 -32 -23.5 -53t-58.5 -21h-199q-38 0 -65 -27t-27 -65v-133h205q35 0 58.5 -21t23.5 -53v-41q0 -32 -23.5 -53t-58.5 -21h-205v-700q0 -32 -25 -57t-57 -25h-47q-32 0 -57 25t-25 57v1046q0 107 74 181q75 75 182 75h328z" />
    <glyph glyph-name="g" unicode="g" 
d="M834 895v-1090q0 -107 -76 -180q-73 -76 -180 -76h-263q-35 0 -58.5 21t-23.5 53v115h297q38 0 65.5 27t27.5 65v238q0 22 -19 22q-20 0 -59 -33t-73 -48t-81 -15h-29q-104 0 -172 74q-67 73 -67 176v485q0 104 67 174q68 74 172 74h29q48 0 81.5 -16t72.5 -52
q38 -32 59 -32q23 0 37 20l49 74h70q34 0 54 -23.5t20 -52.5zM623 276v418q0 37 -25.5 62.5t-62.5 25.5h-113q-37 0 -62.5 -25.5t-25.5 -62.5v-418q0 -37 25.5 -62.5t62.5 -25.5h113q37 0 62.5 25.5t25.5 62.5z" />
    <glyph glyph-name="h" unicode="h" 
d="M834 729v-647q0 -32 -25 -57t-57 -25h-47q-32 0 -57 25t-25 57v612q0 37 -25.5 62.5t-62.5 25.5h-113q-37 0 -62.5 -25.5t-25.5 -62.5v-612q0 -32 -25 -57t-57 -25h-47q-32 0 -57 25t-25 57v1221q0 32 25 56.5t57 24.5h129v-473q0 -34 18 -34q22 0 60 32q39 36 72 52
t81 16h29q104 0 172 -74q68 -71 68 -174z" />
    <glyph glyph-name="i" unicode="i" horiz-adv-x="493" 
d="M352 1303v-97q0 -32 -25 -57t-57 -25h-47q-32 0 -57 25t-25 57v97q0 32 25 56.5t57 24.5h47q32 0 57 -24.5t25 -56.5zM352 889v-807q0 -32 -25 -57t-57 -25h-47q-32 0 -57 25t-25 57v807q0 32 25 57t57 25h47q32 0 57 -25t25 -57z" />
    <glyph glyph-name="j" unicode="j" horiz-adv-x="493" 
d="M352 1303v-97q0 -35 -23.5 -58.5t-56.5 -23.5h-49q-32 0 -57 25t-25 57v97q0 32 25 56.5t57 24.5h49q33 0 56.5 -23t23.5 -58zM352 889v-995q0 -94 -61 -150l-174 -166q-27 -27 -64 -27q-23 0 -41 15l-10 10q-27 21 -27 53q0 25 17 49l110 138q39 46 39 96v977
q0 32 25 57t57 25h47q32 0 57 -25t25 -57z" />
    <glyph glyph-name="k" unicode="k" horiz-adv-x="862" 
d="M537 539l321 -461l-102 -70q-20 -14 -47 -14q-44 0 -68 35l-252 362l-55 -55v-254q0 -32 -25 -57t-57 -25h-47q-32 0 -57 25t-25 57v1218q0 35 24.5 59.5t57.5 24.5h129v-763l332 331q25 25 57 25t57 -25l35 -32q23 -23 23 -50q0 -30 -27 -57z" />
    <glyph glyph-name="l" unicode="l" horiz-adv-x="493" 
d="M352 1303v-1303h-129q-32 0 -57 25t-25 57v1221q0 32 25 56.5t57 24.5h47q32 0 57 -24.5t25 -56.5z" />
    <glyph glyph-name="m" unicode="m" horiz-adv-x="1390" 
d="M1268 729v-647q0 -32 -25 -57t-57 -25h-47q-32 0 -57 25t-25 57v612q0 37 -25.5 62.5t-62.5 25.5h-80q-37 0 -62.5 -25.5t-25.5 -62.5v-612q0 -32 -25 -57t-57 -25h-47q-32 0 -57 25t-25 57v612q0 37 -25.5 62.5t-62.5 25.5h-80q-37 0 -62.5 -25.5t-25.5 -62.5v-612
q0 -32 -25 -57t-57 -25h-47q-32 0 -57 25t-25 57v813q0 29 20 52.5t54 23.5h69l51 -74q14 -20 33 -20q22 0 62 34q40 35 71.5 50.5t77.5 15.5h14q53 0 86.5 -16t73.5 -52q35 -32 56 -32q22 0 39 9t47 32q41 32 73 45.5t74 13.5h12q104 0 168 -70.5t64 -177.5z" />
    <glyph glyph-name="n" unicode="n" 
d="M834 729v-647q0 -32 -25 -57t-57 -25h-47q-32 0 -57 25t-25 57v612q0 37 -25.5 62.5t-62.5 25.5h-113q-37 0 -62.5 -25.5t-25.5 -62.5v-612q0 -32 -25 -57t-57 -25h-47q-32 0 -57 25t-25 57v813q0 29 20 52.5t54 23.5h69l51 -74q14 -20 33 -20q20 0 60 32q50 36 85 52
t80 16h31q102 0 165 -71.5t63 -176.5z" />
    <glyph glyph-name="o" unicode="o" 
d="M834 715v-459q0 -106 -76 -182q-74 -74 -180 -74h-199q-105 0 -182 74q-74 77 -74 182v459q0 106 74 180q76 76 182 76h199q107 0 180 -76q76 -73 76 -180zM623 281v409q0 38 -27.5 65t-65.5 27h-104q-38 0 -65 -27t-27 -65v-409q0 -38 27 -65.5t65 -27.5h104
q38 0 65.5 27.5t27.5 65.5z" />
    <glyph glyph-name="p" unicode="p" horiz-adv-x="942" 
d="M834 729v-485q0 -102 -68 -176t-172 -74h-29q-47 0 -80 15t-73 48q-39 33 -60 33q-18 0 -18 -22v-437q0 -32 -25 -57t-57 -25h-47q-32 0 -57 25t-25 57v1264q0 29 20 52.5t54 23.5h69l49 -74q14 -20 37 -20q22 0 60 32q39 36 72 52t81 16h29q104 0 172 -74
q68 -71 68 -174zM623 276v418q0 37 -25.5 62.5t-62.5 25.5h-113q-37 0 -62.5 -25.5t-25.5 -62.5v-418q0 -37 25.5 -62.5t62.5 -25.5h113q37 0 62.5 25.5t25.5 62.5z" />
    <glyph glyph-name="q" unicode="q" 
d="M834 895v-1264q0 -32 -25 -57t-57 -25h-47q-32 0 -57 25t-25 57v437q0 22 -19 22q-20 0 -59 -33t-73 -48t-81 -15h-29q-104 0 -172 74q-67 73 -67 176v485q0 104 67 174q68 74 172 74h29q48 0 81.5 -16t72.5 -52q38 -32 59 -32q23 0 37 20l49 74h70q34 0 54 -23.5
t20 -52.5zM623 276v418q0 37 -25.5 62.5t-62.5 25.5h-113q-37 0 -62.5 -25.5t-25.5 -62.5v-418q0 -37 25.5 -62.5t62.5 -25.5h113q37 0 62.5 25.5t25.5 62.5z" />
    <glyph glyph-name="r" unicode="r" horiz-adv-x="716" 
d="M754 897v-115h-336q-32 0 -58 -25t-26 -61v-614q0 -32 -25 -57t-57 -25h-47q-32 0 -57 25t-25 57v813q0 29 20 52.5t54 23.5h69l51 -74q14 -20 33 -20q14 0 49 30q37 33 67.5 48.5t76.5 15.5h129q35 0 58.5 -21t23.5 -53z" />
    <glyph glyph-name="s" unicode="s" horiz-adv-x="811" 
d="M737 336v-80q0 -107 -75 -182q-77 -74 -183 -74h-311q-35 0 -58.5 21t-23.5 53v114h346q41 0 66.5 30t25.5 73q0 49 -24.5 83t-67.5 34h-125q-103 0 -168 63.5t-65 165.5v78q0 107 73 180q76 76 183 76h266q35 0 57.5 -21t22.5 -53v-115h-299q-41 0 -65.5 -30t-24.5 -74
q0 -43 24.5 -73t65.5 -30h129q104 0 167.5 -66.5t63.5 -172.5z" />
    <glyph glyph-name="t" unicode="t" horiz-adv-x="655" 
d="M666 897v-115h-240v-700q0 -32 -25 -57t-57 -25h-47q-32 0 -57 25t-25 57v700h-90q-35 0 -58.5 21t-23.5 53v41q0 32 23.5 53t58.5 21h90v332q0 32 25 56.5t57 24.5h47q32 0 57 -24.5t25 -56.5v-332h158q35 0 58.5 -21t23.5 -53z" />
    <glyph glyph-name="u" unicode="u" 
d="M834 889v-813q0 -29 -20 -52.5t-54 -23.5h-70l-49 72q-12 18 -37 18q-20 0 -59 -33t-73 -48t-81 -15h-29q-104 0 -172 74q-67 73 -67 176v645q0 32 25 57t57 25h47q32 0 57 -25t25 -57v-613q0 -37 25.5 -62.5t62.5 -25.5h113q37 0 62.5 25.5t25.5 62.5v613q0 32 25 57
t57 25h47q32 0 57 -25t25 -57z" />
    <glyph glyph-name="v" unicode="v" horiz-adv-x="870" 
d="M840 891q0 -17 -4 -29l-269 -774q-13 -34 -44 -61t-62 -27h-51q-31 0 -62.5 27t-44.5 61l-268 774q-4 12 -4 29q0 23 15.5 41t39.5 26l53 17q16 4 25 4q51 0 69 -53l132 -373q29 -90 45 -215q17 -94 22 -148h6q1 10 4 30t8 53t9 65q27 153 47 215l131 373q18 53 72 53
q10 0 22 -4l53 -17q25 -8 40.5 -26t15.5 -41z" />
    <glyph glyph-name="w" unicode="w" horiz-adv-x="1171" 
d="M1114 897q0 -12 -2 -16l-164 -791q-7 -38 -38 -64t-68 -26h-33q-81 0 -102 74l-82 274q-16 55 -37 172h-4q-21 -117 -37 -172l-82 -274q-21 -74 -103 -74h-32q-37 0 -68.5 26t-38.5 64l-164 791q-2 4 -2 16q0 25 16.5 45.5t41.5 24.5l49 8h6l6 2q26 0 47 -16t27 -41
l74 -367q14 -61 26 -227q6 -80 6 -142h4q35 199 60 285l41 141q11 33 36.5 54.5t55.5 21.5h65q30 0 56 -21.5t37 -54.5l41 -141q30 -124 39 -174q20 -108 20 -111h4q0 25 2 76.5t10 143t21 149.5l74 367q6 25 26.5 41t46.5 16q2 0 6 -2h7l49 -8q24 -4 40.5 -24.5t16.5 -45.5
z" />
    <glyph glyph-name="x" unicode="x" horiz-adv-x="860" 
d="M829 102q0 -41 -30 -65l-37 -29q-20 -14 -47 -14q-40 0 -62 31l-223 305l-223 -305q-22 -31 -60 -31q-27 0 -47 14l-12 10q-34 26 -45.5 41.5t-11.5 42.5q0 23 14 43l260 355l-237 325q-15 21 -15 47q0 40 31 62l39 27q20 14 47 14q37 0 59 -31l203 -272l199 274
q22 31 59 31q27 0 49 -16l37 -27q31 -22 31 -62q0 -27 -14 -47l-236 -325l258 -355q14 -20 14 -43z" />
    <glyph glyph-name="y" unicode="y" horiz-adv-x="897" 
d="M887 883q0 -15 -4 -27l-480 -1251q-20 -51 -73 -51q-14 0 -29 6l-31 12q-51 20 -51 74q0 13 6 28l123 328q-9 7 -20 39l-312 811q-6 12 -6 25q0 56 49 77l45 17q15 6 31 6q54 0 72 -49l137 -350q30 -75 63 -188t46 -167h6q3 8 7 23t12.5 47.5t17.5 66.5q28 100 69 215
l140 353q21 49 71 49q16 0 31 -6l31 -13q49 -21 49 -75z" />
    <glyph glyph-name="z" unicode="z" horiz-adv-x="831" 
d="M791 188v-114q0 -32 -22.5 -53t-57.5 -21h-584q-35 0 -58.5 21t-23.5 53v41q0 40 21 69l460 598h-460v115q0 32 23 53t58 21h560q73 0 73 -74v-33q0 -47 -41 -98l-444 -578h496z" />
    <glyph glyph-name="braceleft" unicode="{" horiz-adv-x="716" 
d="M614 -379q0 -33 -28 -49l-23 -14q-12 -9 -26 -9q-26 0 -58 29l-135 119q-45 42 -45 135v608l-147 47q-60 18 -60 64v18q0 46 60 64l147 45v571q0 93 45 135l135 119q32 29 58 29q15 0 26 -8l23 -15q28 -19 28 -49q0 -22 -8 -35l-96 -151v-1467l96 -151q8 -13 8 -35z" />
    <glyph glyph-name="bar" unicode="|" horiz-adv-x="397" 
d="M274 1475v-1926q0 -26 -17.5 -43.5t-43.5 -17.5h-29q-26 0 -43.5 17.5t-17.5 43.5v1926q0 26 17.5 43.5t43.5 17.5h29q26 0 43.5 -17.5t17.5 -43.5z" />
    <glyph glyph-name="braceright" unicode="}" horiz-adv-x="716" 
d="M102 -379q0 20 9 35l96 151v1467l-96 151q-9 15 -9 35q0 30 29 49l23 15q11 8 26 8q26 0 58 -29l135 -119q45 -42 45 -135v-571l147 -45q60 -17 60 -64v-18q0 -47 -60 -64l-147 -47v-608q0 -93 -45 -135l-135 -119q-32 -29 -58 -29q-14 0 -26 9l-23 14q-29 19 -29 49z
" />
    <glyph glyph-name="asciitilde" unicode="~" horiz-adv-x="995" 
d="M975 647q0 -28 -19 -47l-147 -143q-69 -66 -170 -66q-96 0 -174 66l-59 49q-37 29 -54 29q-21 0 -57 -25l-156 -104q-23 -13 -41 -13q-26 0 -45 19l-16 18q-17 17 -17 39q0 26 21 47l145 143q66 66 170 66q96 0 174 -66l60 -49q33 -26 53 -26q21 0 57 22l156 105
q20 14 45 14q26 0 41 -18l19 -21q14 -14 14 -39z" />
    <glyph glyph-name="exclamdown" unicode="&#xa1;" horiz-adv-x="538" 
d="M164 80v770q0 32 25 57t57 25h47q32 0 57 -25t25 -57v-770q0 -32 -25 -57t-57 -25h-47q-32 0 -57 25t-25 57zM164 1178v122q0 32 25 57t57 25h47q32 0 57 -25t25 -57v-122q0 -32 -25 -57t-57 -25h-47q-32 0 -57 25t-25 57z" />
    <glyph glyph-name="cent" unicode="&#xa2;" horiz-adv-x="813" 
d="M766 188v-114q0 -32 -23.5 -53t-58.5 -21h-104v-150q0 -25 -17.5 -42t-42.5 -17h-49q-25 0 -42 17t-17 42v150h-33q-105 0 -182 74q-74 77 -74 182v459q0 106 74 180q76 76 182 76h33v143q0 25 17 42.5t42 17.5h49q25 0 42.5 -17.5t17.5 -42.5v-143h82q35 0 58 -21
t23 -53v-115h-317q-38 0 -65 -27t-27 -65v-409q0 -38 27 -65.5t65 -27.5h340z" />
    <glyph glyph-name="sterling" unicode="&#xa3;" horiz-adv-x="892" 
d="M872 115v-41q0 -32 -23 -53t-58 -21h-648q-35 0 -58.5 21t-23.5 53v41q0 32 23.5 52.5t58.5 20.5h74v410h-51q-35 0 -58.5 21t-23.5 53v41q0 32 23.5 52.5t58.5 20.5h51v517q0 32 25 56.5t57 24.5h129v-598h219q35 0 58.5 -20.5t23.5 -52.5v-41q0 -32 -23.5 -53
t-58.5 -21h-219v-410h363q35 0 58 -20.5t23 -52.5z" />
    <glyph glyph-name="currency" unicode="&#xa4;" horiz-adv-x="983" 
d="M950 188v-114q0 -32 -23.5 -53t-58.5 -21h-387q-105 0 -182 74q-74 77 -74 182v170h-114q-25 0 -42.5 17t-17.5 42v31q0 25 17.5 43.5t42.5 18.5h114v196h-114q-25 0 -42.5 17.5t-17.5 42.5v30q0 25 17.5 43.5t42.5 18.5h114v202q0 107 74 181q75 75 182 75h338
q35 0 58.5 -21.5t23.5 -53.5v-113h-373q-38 0 -65 -27t-27 -65v-178h305q25 0 42.5 -18.5t17.5 -43.5v-30q0 -25 -17.5 -42.5t-42.5 -17.5h-305v-196h305q25 0 42.5 -18.5t17.5 -43.5v-31q0 -25 -17.5 -42t-42.5 -17h-305v-145q0 -38 27 -65.5t65 -27.5h422z" />
    <glyph glyph-name="yen" unicode="&#xa5;" horiz-adv-x="870" 
d="M840 1288q0 -13 -11 -39l-288 -555v-71h145q35 0 58.5 -21t23.5 -53v-41q0 -32 -23.5 -53t-58.5 -21h-145v-352q0 -32 -25 -57t-57 -25h-47q-32 0 -57 25t-25 57v352h-146q-35 0 -58.5 21t-23.5 53v41q0 32 23.5 53t58.5 21h146v71l-289 555q-10 17 -10 33q0 54 43 78
l43 22q22 11 39 11q51 0 71 -45l209 -400l207 400q20 45 72 45q17 0 39 -11l43 -22q43 -21 43 -72z" />
    <glyph glyph-name="brokenbar" unicode="&#xa6;" horiz-adv-x="456" 
d="M334 1303v-646q0 -32 -25 -57t-57 -25h-47q-32 0 -57 25t-25 57v646q0 32 25 56.5t57 24.5h47q32 0 57 -24.5t25 -56.5zM334 309v-678q0 -32 -25 -57t-57 -25h-47q-32 0 -57 25t-25 57v678q0 32 25 57t57 25h47q32 0 57 -25t25 -57z" />
    <glyph glyph-name="section" unicode="&#xa7;" horiz-adv-x="940" 
d="M817 47v-248q0 -92 -69 -170q-71 -80 -183 -80h-352q-90 0 -90 78v111h383q46 0 73 26t27 64v199q0 33 -9.5 53.5t-35.5 38.5l-321 233q-107 80 -107 209v119q0 41 17 82t38 59q-23 24 -39 69t-16 81v162q0 110 78 182q78 69 172 69h311q37 0 61.5 -19t24.5 -48v-121
h-340q-45 0 -70.5 -27t-25.5 -67v-117q0 -38 29 -61l340 -246q50 -36 77 -94t27 -123v-113q0 -37 -16 -78t-37 -65q21 -26 37 -72t16 -86zM606 371v73q0 64 -37 91l-213 151l-2 -2q-10 -23 -10 -43v-70q0 -29 10 -45.5t37 -36.5l207 -149q8 8 8 31z" />
    <glyph glyph-name="dieresis" unicode="&#xa8;" horiz-adv-x="614" 
d="M575 1317v-137q0 -31 -20.5 -49.5t-52.5 -18.5h-51q-30 0 -51 18.5t-21 49.5v137q0 30 19 48.5t51 18.5h59q32 0 49.5 -18.5t17.5 -48.5zM236 1317v-137q0 -31 -21 -49.5t-53 -18.5h-51q-30 0 -51 18.5t-21 49.5v137q0 30 19 48.5t51 18.5h59q32 0 50 -18.5t18 -48.5z
" />
    <glyph glyph-name="copyright" unicode="&#xa9;" horiz-adv-x="1329" 
d="M1206 1194v-1004q0 -78 -58 -134t-140 -56h-686q-82 0 -140.5 56t-58.5 134v1004q0 80 57.5 135t141.5 55h686q82 0 140 -56t58 -134zM1063 203v979q0 29 -20.5 48t-51.5 19h-655q-31 0 -50.5 -19t-19.5 -48v-979q0 -29 19.5 -48.5t50.5 -19.5h657q31 0 50.5 19.5
t19.5 48.5zM913 414v-80q0 -30 -24.5 -49t-57.5 -19h-229q-72 0 -123 52t-51 124v510q0 73 51 123.5t125 50.5h211q36 0 60 -20t24 -47v-80h-250q-65 0 -65 -61v-441q0 -29 18.5 -46t48.5 -17h262z" />
    <glyph glyph-name="ordfeminine" unicode="&#xaa;" horiz-adv-x="819" 
d="M696 1190v-528q0 -26 -15 -44t-44 -18h-55l-41 57q-9 15 -29 15q-17 0 -47 -27q-34 -28 -60.5 -39.5t-64.5 -11.5h-23q-83 0 -138.5 60t-55.5 143v108q0 84 54.5 142.5t139.5 58.5h23q38 0 65 -12.5t60 -40.5q30 -27 47 -27q14 0 14 27v114q0 26 -19.5 46t-45.5 20h-279
v102q0 22 19.5 35.5t46.5 13.5h237q103 0 157 -52t54 -142zM526 823v56q0 29 -20 49t-51 20h-90q-30 0 -51 -20t-21 -49v-56q0 -29 21.5 -50t50.5 -21h90q30 0 50.5 20.5t20.5 50.5z" />
    <glyph glyph-name="guillemotleft" unicode="&#xab;" horiz-adv-x="1157" 
d="M1085 203q0 -31 -20 -51l-21 -19q-20 -20 -49 -20t-51 22l-342 336q-37 37 -37 66v43q0 28 37 65l342 338q23 23 51 23t49 -21l21 -20q20 -20 20 -52q0 -20 -18 -41l-272 -313l272 -313q18 -21 18 -43zM602 203q0 -31 -20 -51l-21 -19q-20 -20 -49 -20t-51 22l-342 336
q-37 37 -37 66v43q0 28 37 65l342 338q23 23 51 23t49 -21l21 -20q20 -20 20 -52q0 -20 -18 -41l-273 -313l273 -313q18 -21 18 -43z" />
    <glyph glyph-name="registered" unicode="&#xae;" horiz-adv-x="1019" 
d="M897 1249v-704q0 -56 -39.5 -94.5t-99.5 -38.5h-496q-60 0 -99.5 38.5t-39.5 94.5v704q0 55 41 95t98 40h496q57 0 98 -40t41 -95zM797 555v686q0 20 -14.5 33.5t-34.5 13.5h-476q-20 0 -34.5 -13.5t-14.5 -33.5v-686q0 -20 14.5 -33.5t34.5 -13.5h476q20 0 34.5 13.5
t14.5 33.5zM614 868l84 -184q4 -12 4 -18q0 -28 -26 -37l-21 -8q-15 -5 -18 -5q-30 0 -39 25l-94 209h-58v-188q0 -19 -13 -31.5t-32 -12.5h-20q-43 0 -43 44v495q0 43 39 43h35l24 -41q4 -4 10 -4q9 0 23 14q49 33 80 33h14q52 0 80.5 -32.5t28.5 -84.5v-116
q0 -67 -58 -101zM563 979v90q0 29 -31 29h-57q-29 0 -29 -29v-119h86q31 0 31 29z" />
    <glyph glyph-name="macron" unicode="&#xaf;" horiz-adv-x="716" 
d="M575 1323v-33q0 -26 -18 -43.5t-43 -17.5h-309q-27 0 -45.5 17.5t-18.5 43.5v33q0 26 18.5 43.5t45.5 17.5h307q26 0 44.5 -17.5t18.5 -43.5z" />
    <glyph glyph-name="degree" unicode="&#xb0;" horiz-adv-x="718" 
d="M616 1204v-157q0 -70 -56.5 -123.5t-133.5 -53.5h-131q-75 0 -135 54q-58 52 -58 123v157q0 69 56 125q55 55 133 55h139q79 0 131 -55q55 -55 55 -125zM465 1073v109q0 35 -20 53t-54 18h-61q-34 0 -54 -18t-20 -53v-109q0 -35 20 -53.5t54 -18.5h61q34 0 54 18.5
t20 53.5z" />
    <glyph glyph-name="plusminus" unicode="&#xb1;" horiz-adv-x="1024" 
d="M942 584v-43q0 -32 -23.5 -53t-58.5 -21h-244v-141q0 -35 -24.5 -58.5t-59.5 -23.5h-47q-33 0 -56 23.5t-23 58.5v141h-242q-35 0 -58.5 21t-23.5 53v43q0 32 23 51.5t59 19.5h242v142q0 35 23 58.5t56 23.5h47q35 0 59.5 -23.5t24.5 -58.5v-142h244q36 0 59 -19.5
t23 -51.5zM958 115v-41q0 -32 -23 -53t-58 -21h-730q-35 0 -58 21t-23 53v41q0 32 23 52.5t58 20.5h730q35 0 58 -20.5t23 -52.5z" />
    <glyph glyph-name="twosuperior" unicode="&#xb2;" horiz-adv-x="696" 
d="M584 690v-31q0 -29 -20 -45t-52 -16h-401v254q0 100 96 156l153 88q33 20 33 51v43q0 41 -43 41h-217v84q0 29 21.5 49t52.5 20h180q72 0 122 -47t50 -114v-111q0 -80 -74 -123l-174 -102q-30 -15 -30 -58v-77h231q32 0 52 -16.5t20 -45.5z" />
    <glyph glyph-name="threesuperior" unicode="&#xb3;" horiz-adv-x="696" 
d="M557 877v-111q0 -69 -50 -118.5t-122 -49.5h-192q-31 0 -53.5 20.5t-22.5 49.5v84h229q47 0 47 45v65q0 43 -47 43h-84q-65 0 -65 64v28q0 64 65 64h74q19 0 32 12t13 31v82q0 45 -43 45h-205v82q0 29 21.5 50t52.5 21h168q72 0 123 -48t51 -117v-132q0 -39 -24 -69
t-66 -37q46 -7 72 -36t26 -68z" />
    <glyph glyph-name="acute" unicode="&#xb4;" horiz-adv-x="614" 
d="M508 1284q0 -44 -35 -65l-264 -152q-17 -10 -35 -10q-34 0 -51 26l-6 9q-11 15 -11 34q0 30 25 52l234 196q20 17 45 17q42 0 69 -37l15 -21q14 -20 14 -49z" />
    <glyph glyph-name="mu" unicode="&#xb5;" 
d="M834 889v-813q0 -29 -20 -52.5t-54 -23.5h-70l-49 72q-12 18 -37 18q-20 0 -59 -33t-73 -48t-81 -15h-57v-363q0 -32 -25 -57t-57 -25h-47q-32 0 -57 25t-25 57v1258q0 32 25 57t57 25h47q32 0 57 -25t25 -57v-613q0 -37 25.5 -62.5t62.5 -25.5h113q37 0 62.5 25.5
t25.5 62.5v613q0 32 25 57t57 25h47q32 0 57 -25t25 -57z" />
    <glyph glyph-name="paragraph" unicode="&#xb6;" horiz-adv-x="1372" 
d="M1352 1311v-41q0 -32 -23.5 -53t-58.5 -21h-127v-1565q0 -32 -25 -57t-57 -25h-47q-32 0 -57 25t-25 57v1565h-115v-1565q0 -32 -25 -57t-57 -25h-47q-32 0 -57 25t-25 57v734h-248q-106 0 -182 73q-74 77 -74 183v520q0 106 64 174.5t168 68.5h936q35 0 58.5 -20.5
t23.5 -52.5zM395 553h211v643h-211q-32 0 -57 -25t-25 -57v-479q0 -32 25 -57t57 -25z" />
    <glyph glyph-name="periodcentered" unicode="&#xb7;" horiz-adv-x="487" 
d="M367 629v-137q0 -32 -25 -57t-57 -25h-82q-32 0 -57 25t-25 57v137q0 32 25 57t57 25h82q32 0 57 -25t25 -57z" />
    <glyph glyph-name="cedilla" unicode="&#xb8;" horiz-adv-x="716" 
d="M522 -223v-94q0 -54 -43 -94t-104 -40h-111q-30 0 -48.5 18.5t-18.5 43.5v51h143q22 0 38.5 12.5t16.5 34.5v43q0 23 -17 35t-42 12h-109v219h127v-106h41q48 0 87.5 -40.5t39.5 -94.5z" />
    <glyph glyph-name="onesuperior" unicode="&#xb9;" horiz-adv-x="696" 
d="M455 1319v-647q0 -31 -19.5 -51.5t-50.5 -20.5h-29q-30 0 -48.5 21t-18.5 51v456l-51 -30q-31 -17 -48 -17q-25 0 -41 16.5t-16 41.5q0 19 23 49l168 170q26 26 59 26h12q60 0 60 -65z" />
    <glyph glyph-name="ordmasculine" unicode="&#xba;" horiz-adv-x="821" 
d="M698 1178v-371q0 -86 -60.5 -146.5t-145.5 -60.5h-162q-86 0 -146.5 60.5t-60.5 146.5v371q0 86 60.5 146t146.5 60h162q85 0 145.5 -60t60.5 -146zM526 827v330q0 32 -21 54t-52 22h-84q-32 0 -54 -22t-22 -54v-330q0 -32 22 -53.5t54 -21.5h84q31 0 52 21.5t21 53.5z
" />
    <glyph glyph-name="guillemotright" unicode="&#xbb;" horiz-adv-x="1157" 
d="M1075 582v-43q0 -29 -37 -66l-342 -336q-22 -22 -51 -22t-49 20l-18 19q-23 23 -23 51q0 20 20 43l271 313l-273 313q-18 21 -18 41q0 32 20 52l21 20q21 21 49 21t51 -23l342 -338q37 -37 37 -65zM592 582v-43q0 -29 -37 -66l-342 -336q-22 -22 -51 -22t-49 20l-19 19
q-22 22 -22 51q0 20 20 43l270 313l-272 313q-18 21 -18 41q0 32 20 52l21 20q21 21 49 21t51 -23l342 -338q37 -37 37 -65z" />
    <glyph glyph-name="onequarter" unicode="&#xbc;" horiz-adv-x="1679" 
d="M1554 299v-33q0 -28 -20.5 -44.5t-52.5 -16.5h-80v-135q0 -29 -22.5 -49.5t-53.5 -20.5h-20q-31 0 -51.5 20.5t-20.5 49.5v135h-217q-32 0 -59 20.5t-27 48.5v15q0 22 24 61l236 385q29 49 84 49h47q32 0 56 -20.5t24 -50.5v-355h80q31 0 52 -16.5t21 -42.5zM1253 1298
l-778 -1286q-21 -30 -53 -30q-16 0 -33 10l-20 14q-29 23 -29 53q0 18 8 31l778 1284q17 33 54 33q13 0 30 -10l23 -15q29 -19 29 -53q0 -16 -9 -31zM449 1319v-647q0 -30 -20 -51t-50 -21h-31q-30 0 -48.5 21t-18.5 51v456l-52 -30q-31 -17 -47 -17q-24 0 -40.5 16.5
t-16.5 39.5q0 29 22 51l170 170q26 26 58 26h12q62 0 62 -65zM1108 358h125v203z" />
    <glyph glyph-name="onehalf" unicode="&#xbd;" horiz-adv-x="1679" 
d="M1554 92v-31q0 -28 -20.5 -44.5t-52.5 -16.5h-400v254q0 101 95 156l153 88q33 17 33 51v43q0 41 -43 41h-215v88q0 29 21 47t53 18h178q72 0 123 -47t51 -114v-111q0 -79 -76 -123l-174 -102q-31 -15 -31 -58v-77h232q32 0 52.5 -16.5t20.5 -45.5zM1247 1298l-778 -1286
q-21 -30 -53 -30q-16 0 -33 10l-21 14q-28 22 -28 53q0 18 8 31l778 1284q17 33 54 33q13 0 30 -10l23 -15q28 -19 28 -53q0 -18 -8 -31zM451 1319v-647q0 -31 -20 -52.5t-50 -21.5h-31q-30 0 -48.5 21t-18.5 53v456l-52 -30q-31 -17 -47 -17q-25 0 -42 16.5t-17 41.5
q0 24 25 49l169 170q26 26 58 26h12q62 0 62 -65z" />
    <glyph glyph-name="threequarters" unicode="&#xbe;" horiz-adv-x="1679" 
d="M1559 299v-33q0 -29 -20 -45t-52 -16h-80v-135q0 -29 -22.5 -49.5t-53.5 -20.5h-20q-31 0 -52.5 20.5t-21.5 49.5v135h-215q-32 0 -59 20.5t-27 48.5v15q0 20 25 61l235 385q29 49 84 49h47q31 0 54.5 -20.5t23.5 -50.5v-355h82q31 0 51.5 -16.5t20.5 -42.5zM1288 1298
l-780 -1286q-15 -30 -53 -30q-14 0 -31 10l-21 14q-28 22 -28 53q0 18 8 31l778 1284q17 33 53 33q14 0 31 -10l21 -15q30 -21 30 -55q0 -16 -8 -29zM565 877v-111q0 -69 -50 -118.5t-122 -49.5h-194q-31 0 -53.5 20.5t-22.5 49.5v84h231q45 0 45 45v65q0 43 -45 43h-86
q-65 0 -65 64v28q0 64 65 64h74q19 0 32 12t13 31v82q0 45 -43 45h-205v82q0 29 21.5 50t52.5 21h168q72 0 123 -48t51 -117v-132q0 -39 -23.5 -69t-64.5 -37q46 -7 72 -36t26 -68zM1114 358h123v203z" />
    <glyph glyph-name="questiondown" unicode="&#xbf;" horiz-adv-x="811" 
d="M113 256v274q0 108 73 181q75 75 183 75h67v66q0 34 25.5 58t58.5 24h47q33 0 56.5 -23.5t23.5 -58.5v-172q0 -35 -23.5 -58.5t-56.5 -23.5h-151q-38 0 -65 -27t-27 -65v-225q0 -38 27 -65.5t65 -27.5h323v-114q0 -32 -23.5 -53t-58.5 -21h-288q-106 0 -183 74
q-73 76 -73 182zM436 1180v123q0 32 25 56.5t57 24.5h47q32 0 57 -24.5t25 -56.5v-123q0 -32 -25 -57t-57 -25h-47q-32 0 -57 25t-25 57z" />
    <glyph glyph-name="Agrave" unicode="&#xc0;" horiz-adv-x="976" 
d="M670 1532q0 -20 -11 -35l-6 -8q-18 -27 -51 -27q-17 0 -35 11l-264 151q-35 21 -35 66q0 28 15 49l14 20q27 37 70 37q26 0 45 -16l233 -197q25 -22 25 -51zM926 84q0 -26 -17.5 -49t-42.5 -29l-45 -10q-6 0 -10 -2h-8q-29 0 -49.5 16t-26.5 43l-82 334h-313l-82 -334
q-6 -26 -27 -42.5t-47 -16.5h-10q-4 2 -10 2l-45 10q-24 5 -42 27.5t-18 48.5q0 16 2 20l293 1223q14 59 88 59h182l308 -1282q2 -4 2 -18zM375 575h227l-59 252q-18 75 -35 224q-14 127 -16 153h-7q-31 -289 -51 -377z" />
    <glyph glyph-name="Aacute" unicode="&#xc1;" horiz-adv-x="976" 
d="M700 1694q0 -45 -34 -66l-265 -151q-18 -11 -34 -11q-34 0 -52 27l-6 8q-10 13 -10 35q0 29 25 51l233 197q19 16 45 16q43 0 70 -37l14 -20q14 -20 14 -49zM926 84q0 -26 -17.5 -49t-42.5 -29l-45 -10q-6 0 -10 -2h-8q-29 0 -49.5 16t-26.5 43l-82 334h-313l-82 -334
q-6 -26 -27 -42.5t-47 -16.5h-10q-4 2 -10 2l-45 10q-24 5 -42 27.5t-18 48.5q0 16 2 20l293 1223q14 59 88 59h182l308 -1282q2 -4 2 -18zM375 575h227l-59 252q-18 75 -35 224q-14 127 -16 153h-7q-31 -289 -51 -377z" />
    <glyph glyph-name="Acircumflex" unicode="&#xc2;" horiz-adv-x="976" 
d="M791 1540q0 -22 -17 -39l-18 -18q-17 -17 -39 -17t-37 15l-191 151l-190 -151q-15 -15 -37 -15t-39 17l-18 18q-17 17 -17 37t19 39l174 172l6 6q21 21 37 30t39 9h53q40 0 76 -39l6 -6l176 -172q17 -17 17 -37zM926 84q0 -26 -17.5 -49t-42.5 -29l-45 -10q-6 0 -10 -2
h-8q-29 0 -49.5 16t-26.5 43l-82 334h-313l-82 -334q-6 -26 -27 -42.5t-47 -16.5h-10q-4 2 -10 2l-45 10q-24 5 -42 27.5t-18 48.5q0 16 2 20l293 1223q14 59 88 59h182l308 -1282q2 -4 2 -18zM375 575h227l-59 252q-18 75 -35 224q-14 127 -16 153h-7q-31 -289 -51 -377z
" />
    <glyph glyph-name="Atilde" unicode="&#xc3;" horiz-adv-x="976" 
d="M827 1739q0 -30 -34 -64l-105 -100q-27 -27 -52 -40t-63 -13q-47 0 -73 20l-78 66q-1 1 -3 2t-3 2q-20 20 -39 20t-41 -16l-94 -70l-2 -2q-28 -22 -58 -22q-25 0 -42 16t-17 41q0 28 35 63l104 103q26 26 51.5 38.5t63.5 12.5q51 0 74 -20l79 -64q1 -1 3.5 -2t3.5 -2
q25 -22 41 -22q14 0 34 14l4 4l93 70h2q28 22 57 22q25 0 42 -16t17 -41zM926 84q0 -26 -17.5 -49t-42.5 -29l-45 -10q-6 0 -10 -2h-8q-29 0 -49.5 16t-26.5 43l-82 334h-313l-82 -334q-6 -26 -27 -42.5t-47 -16.5h-10q-4 2 -10 2l-45 10q-24 5 -42 27.5t-18 48.5q0 16 2 20
l293 1223q14 59 88 59h182l308 -1282q2 -4 2 -18zM375 575h227l-59 252q-18 75 -35 224q-14 127 -16 153h-7q-31 -289 -51 -377z" />
    <glyph glyph-name="Adieresis" unicode="&#xc4;" horiz-adv-x="976" 
d="M758 1729v-138q0 -31 -21 -49t-53 -18h-51q-31 0 -51.5 18t-20.5 49v138q0 30 19 48.5t51 18.5h59q32 0 50 -18.5t18 -48.5zM418 1729v-138q0 -31 -21 -49t-53 -18h-51q-31 0 -51.5 18t-20.5 49v138q0 30 19 48.5t51 18.5h59q32 0 50 -18.5t18 -48.5zM926 84
q0 -26 -17.5 -49t-42.5 -29l-45 -10q-6 0 -10 -2h-8q-29 0 -49.5 16t-26.5 43l-82 334h-313l-82 -334q-6 -26 -27 -42.5t-47 -16.5h-10q-4 2 -10 2l-45 10q-24 5 -42 27.5t-18 48.5q0 16 2 20l293 1223q14 59 88 59h182l308 -1282q2 -4 2 -18zM375 575h227l-59 252
q-18 75 -35 224q-14 127 -16 153h-7q-31 -289 -51 -377z" />
    <glyph glyph-name="Aring" unicode="&#xc5;" horiz-adv-x="976" 
d="M686 1659v-88q0 -54 -43 -94.5t-100 -40.5h-101q-57 0 -101 40.5t-44 94.5v88q0 52 42 93.5t101 41.5h105q59 0 100 -40t41 -95zM565 1599v31q0 51 -51 51h-43q-24 0 -38.5 -13.5t-14.5 -37.5v-31q0 -22 16 -36.5t37 -14.5h43q21 0 36 14t15 37zM926 84q0 -26 -17.5 -49
t-42.5 -29l-45 -10q-6 0 -10 -2h-8q-29 0 -49.5 16t-26.5 43l-82 334h-313l-82 -334q-6 -26 -27 -42.5t-47 -16.5h-10q-4 2 -10 2l-45 10q-24 5 -42 27.5t-18 48.5q0 16 2 20l293 1223q14 59 88 59h182l308 -1282q2 -4 2 -18zM375 575h227l-59 252q-18 75 -35 224
q-14 127 -16 153h-7q-31 -289 -51 -377z" />
    <glyph glyph-name="AE" unicode="&#xc6;" horiz-adv-x="1425" 
d="M1364 115v-41q0 -32 -22.5 -53t-57.5 -21h-516q-35 0 -57.5 19.5t-22.5 50.5v317h-317l-168 -352q-8 -17 -27.5 -29t-42.5 -12q-18 0 -31 8l-51 27q-41 21 -41 63q0 20 8 33l574 1200q27 59 102 59h643v-114q0 -32 -23.5 -53t-58.5 -21h-356v-410h309q35 0 58.5 -20.5
t23.5 -52.5v-41q0 -32 -23.5 -53t-58.5 -21h-309v-410h385q35 0 57.5 -20.5t22.5 -52.5zM461 575h227v547q-4 -22 -37 -115t-71 -180z" />
    <glyph glyph-name="Ccedilla" unicode="&#xc7;" horiz-adv-x="839" 
d="M397 -201v201q-102 3 -174 78q-69 75 -69 178v872q0 108 73 181q75 75 183 75h276q35 0 58.5 -20.5t23.5 -52.5v-115h-311q-38 0 -65 -27t-27 -65v-823q0 -38 27 -65.5t65 -27.5h360v-114q0 -32 -23.5 -53t-58.5 -21h-211v-88h41q48 0 87.5 -40.5t39.5 -94.5v-94
q0 -54 -43 -94t-104 -40h-111q-30 0 -48.5 18.5t-18.5 43.5v51h143q22 0 38.5 12.5t16.5 34.5v43q0 23 -17 35t-42 12h-109z" />
    <glyph glyph-name="Egrave" unicode="&#xc8;" horiz-adv-x="890" 
d="M690 1536q0 -22 -10 -35l-6 -8q-18 -27 -51 -27q-17 0 -35 11l-264 151q-35 21 -35 66q0 29 14 49l14 20q27 37 70 37q26 0 45 -16l234 -197q24 -21 24 -51zM829 115v-41q0 -32 -22 -53t-57 -21h-596v1384h649v-114q0 -32 -23.5 -53t-58.5 -21h-356v-410h309
q35 0 58.5 -20.5t23.5 -52.5v-41q0 -32 -23.5 -53t-58.5 -21h-309v-410h385q35 0 57 -20.5t22 -52.5z" />
    <glyph glyph-name="Eacute" unicode="&#xc9;" horiz-adv-x="890" 
d="M686 1694q0 -45 -35 -66l-264 -151q-18 -11 -35 -11q-33 0 -51 27l-6 8q-10 13 -10 35q0 30 24 51l234 197q19 16 45 16q42 0 69 -37l15 -20q14 -20 14 -49zM829 115v-41q0 -32 -22 -53t-57 -21h-596v1384h649v-114q0 -32 -23.5 -53t-58.5 -21h-356v-410h309
q35 0 58.5 -20.5t23.5 -52.5v-41q0 -32 -23.5 -53t-58.5 -21h-309v-410h385q35 0 57 -20.5t22 -52.5z" />
    <glyph glyph-name="Ecircumflex" unicode="&#xca;" horiz-adv-x="890" 
d="M774 1540q0 -23 -16 -39l-19 -18q-17 -17 -39 -17q-21 0 -36 15l-191 151l-190 -151q-15 -15 -37 -15t-39 17l-19 18q-16 16 -16 37t18 39l175 172l6 6q21 21 36.5 30t38.5 9h54q39 0 75 -39l7 -6l176 -172q16 -16 16 -37zM829 115v-41q0 -32 -22 -53t-57 -21h-596v1384
h649v-114q0 -32 -23.5 -53t-58.5 -21h-356v-410h309q35 0 58.5 -20.5t23.5 -52.5v-41q0 -32 -23.5 -53t-58.5 -21h-309v-410h385q35 0 57 -20.5t22 -52.5z" />
    <glyph glyph-name="Edieresis" unicode="&#xcb;" horiz-adv-x="890" 
d="M756 1726v-137q0 -31 -21 -49t-53 -18h-51q-31 0 -51.5 18t-20.5 49v137q0 30 19 49t51 19h59q32 0 50 -19t18 -49zM416 1726v-137q0 -31 -21 -49t-53 -18h-51q-31 0 -51.5 18t-20.5 49v137q0 30 19 49t51 19h59q32 0 50 -19t18 -49zM829 115v-41q0 -32 -22 -53t-57 -21
h-596v1384h649v-114q0 -32 -23.5 -53t-58.5 -21h-356v-410h309q35 0 58.5 -20.5t23.5 -52.5v-41q0 -32 -23.5 -53t-58.5 -21h-309v-410h385q35 0 57 -20.5t22 -52.5z" />
    <glyph glyph-name="Igrave" unicode="&#xcc;" horiz-adv-x="559" 
d="M485 1536q0 -22 -10 -35l-6 -8q-18 -27 -51 -27q-17 0 -35 11l-264 151q-35 21 -35 66q0 29 14 49l15 20q27 37 69 37q26 0 45 -16l234 -197q24 -21 24 -51zM385 1303v-1221q0 -32 -25 -57t-57 -25h-47q-32 0 -57 25t-25 57v1221q0 32 25 56.5t57 24.5h47q32 0 57 -24.5
t25 -56.5z" />
    <glyph glyph-name="Iacute" unicode="&#xcd;" horiz-adv-x="559" 
d="M485 1694q0 -45 -34 -66l-265 -151q-18 -11 -34 -11q-34 0 -52 27l-6 8q-10 13 -10 35q0 29 25 51l233 197q19 16 45 16q43 0 70 -37l14 -20q14 -20 14 -49zM385 1303v-1221q0 -32 -25 -57t-57 -25h-47q-32 0 -57 25t-25 57v1221q0 32 25 56.5t57 24.5h47q32 0 57 -24.5
t25 -56.5z" />
    <glyph glyph-name="Icircumflex" unicode="&#xce;" horiz-adv-x="559" 
d="M582 1540q0 -22 -17 -39l-18 -18q-17 -17 -39 -17t-37 15l-190 151l-191 -151q-15 -15 -37 -15t-39 17l-18 18q-16 16 -16 37t18 39l174 172l6 6q21 21 37 30t39 9h53q40 0 76 -39l6 -6l176 -172q17 -17 17 -37zM385 1303v-1221q0 -32 -25 -57t-57 -25h-47q-32 0 -57 25
t-25 57v1221q0 32 25 56.5t57 24.5h47q32 0 57 -24.5t25 -56.5z" />
    <glyph glyph-name="Idieresis" unicode="&#xcf;" horiz-adv-x="559" 
d="M549 1726v-137q0 -31 -21 -49t-53 -18h-51q-31 0 -52.5 18t-21.5 49v137q0 30 19 49t51 19h59q32 0 51 -19t19 -49zM207 1726v-137q0 -31 -20 -49t-52 -18h-51q-31 0 -52.5 18t-21.5 49v137q0 30 19 49t51 19h59q32 0 50 -19t18 -49zM385 1303v-1221q0 -32 -25 -57
t-57 -25h-47q-32 0 -57 25t-25 57v1221q0 32 25 56.5t57 24.5h47q32 0 57 -24.5t25 -56.5z" />
    <glyph glyph-name="Eth" unicode="&#xd0;" horiz-adv-x="1103" 
d="M950 1143v-897q0 -101 -76 -174q-75 -72 -180 -72h-499v598h-82q-35 0 -58.5 21t-23.5 53v41q0 32 23.5 52.5t58.5 20.5h82v523q0 29 20.5 52t54.5 23h68l51 -75q13 -19 33 -19q19 0 63 33q50 35 89 51.5t85 16.5h64q102 0 164.5 -71.5t62.5 -176.5zM739 274v836
q0 35 -25.5 60.5t-60.5 25.5h-161q-35 0 -60.5 -25.5t-25.5 -60.5v-324h139q35 0 58.5 -20.5t23.5 -52.5v-41q0 -32 -23.5 -53t-58.5 -21h-139v-410h247q35 0 60.5 25.5t25.5 60.5z" />
    <glyph glyph-name="Ntilde" unicode="&#xd1;" horiz-adv-x="1093" 
d="M903 1743q0 -29 -35 -64l-104 -100q-27 -27 -52 -40t-63 -13q-48 0 -74 20l-77 66q-1 1 -3 2t-3 2q-20 20 -39 20t-41 -16l-95 -70l-2 -2q-28 -22 -57 -22q-25 0 -42 16t-17 41q0 30 34 64l105 102q26 26 51.5 38.5t63.5 12.5q50 0 73 -20l80 -64q1 -1 3 -2t3 -2
q25 -22 41 -22q15 0 35 14l4 4l92 70h2q28 22 58 22q25 0 42 -16t17 -41zM940 1384v-1300q0 -38 -19 -61t-53 -23h-45q-30 0 -55 20.5t-37 47.5l-295 639q-40 101 -43 108q-4 17 -15.5 51.5t-12.5 38.5v-823q0 -32 -25 -57t-57 -25h-47q-32 0 -57 25t-25 57v1218
q0 38 19.5 61t53.5 23h62q50 0 71 -47l320 -719q44 -97 49 -151v836q0 35 20 58t50 23h141z" />
    <glyph glyph-name="Ograve" unicode="&#xd2;" horiz-adv-x="1099" 
d="M719 1536q0 -22 -10 -35l-7 -8q-18 -27 -51 -27q-17 0 -35 11l-264 151q-35 21 -35 66q0 28 15 49l14 20q27 37 70 37q26 0 45 -16l233 -197q25 -22 25 -51zM946 1128v-872q0 -106 -76 -182q-74 -74 -180 -74h-280q-106 0 -183 74q-73 76 -73 182v872q0 108 73 181
q75 75 183 75h280q108 0 180 -75q76 -73 76 -181zM735 281v823q0 38 -27 65t-65 27h-186q-38 0 -65 -27t-27 -65v-823q0 -38 27 -65.5t65 -27.5h186q38 0 65 27.5t27 65.5z" />
    <glyph glyph-name="Oacute" unicode="&#xd3;" horiz-adv-x="1099" 
d="M756 1694q0 -45 -35 -66l-264 -151q-18 -11 -35 -11q-33 0 -51 27l-6 8q-11 15 -11 35q0 29 25 51l233 197q19 16 45 16q43 0 70 -37l14 -20q15 -21 15 -49zM946 1128v-872q0 -106 -76 -182q-74 -74 -180 -74h-280q-106 0 -183 74q-73 76 -73 182v872q0 108 73 181
q75 75 183 75h280q108 0 180 -75q76 -73 76 -181zM735 281v823q0 38 -27 65t-65 27h-186q-38 0 -65 -27t-27 -65v-823q0 -38 27 -65.5t65 -27.5h186q38 0 65 27.5t27 65.5z" />
    <glyph glyph-name="Ocircumflex" unicode="&#xd4;" horiz-adv-x="1099" 
d="M852 1540q0 -23 -16 -39l-19 -18q-17 -17 -39 -17t-37 15l-190 151l-191 -151q-15 -15 -36 -15q-22 0 -39 17l-19 18q-16 16 -16 37t18 39l174 172l7 6q21 21 36.5 30t38.5 9h54q39 0 75 -39l6 -6l177 -172q16 -16 16 -37zM946 1128v-872q0 -106 -76 -182
q-74 -74 -180 -74h-280q-106 0 -183 74q-73 76 -73 182v872q0 108 73 181q75 75 183 75h280q108 0 180 -75q76 -73 76 -181zM735 281v823q0 38 -27 65t-65 27h-186q-38 0 -65 -27t-27 -65v-823q0 -38 27 -65.5t65 -27.5h186q38 0 65 27.5t27 65.5z" />
    <glyph glyph-name="Otilde" unicode="&#xd5;" horiz-adv-x="1099" 
d="M907 1739q0 -29 -35 -64l-104 -100q-27 -27 -52 -40t-63 -13q-47 0 -73 20l-78 66q-1 1 -3 2t-3 2q-20 20 -39 20t-41 -16l-94 -70l-3 -2q-28 -22 -57 -22q-25 0 -42 16t-17 41q0 28 35 63l104 103q26 26 51.5 38.5t63.5 12.5q50 0 73 -20l80 -64q1 -1 3 -2t3 -2
q25 -22 41 -22q15 0 35 14l4 4l92 70h3q28 22 57 22q25 0 42 -16t17 -41zM946 1128v-872q0 -106 -76 -182q-74 -74 -180 -74h-280q-106 0 -183 74q-73 76 -73 182v872q0 108 73 181q75 75 183 75h280q108 0 180 -75q76 -73 76 -181zM735 281v823q0 38 -27 65t-65 27h-186
q-38 0 -65 -27t-27 -65v-823q0 -38 27 -65.5t65 -27.5h186q38 0 65 27.5t27 65.5z" />
    <glyph glyph-name="Odieresis" unicode="&#xd6;" horiz-adv-x="1099" 
d="M819 1726v-137q0 -31 -21 -49t-53 -18h-51q-30 0 -50.5 18t-20.5 49v137q0 30 18.5 49t50.5 19h60q31 0 49 -19t18 -49zM479 1726v-137q0 -31 -20.5 -49t-52.5 -18h-52q-30 0 -50.5 18t-20.5 49v137q0 30 18.5 49t50.5 19h60q31 0 49 -19t18 -49zM946 1128v-872
q0 -106 -76 -182q-74 -74 -180 -74h-280q-106 0 -183 74q-73 76 -73 182v872q0 108 73 181q75 75 183 75h280q108 0 180 -75q76 -73 76 -181zM735 281v823q0 38 -27 65t-65 27h-186q-38 0 -65 -27t-27 -65v-823q0 -38 27 -65.5t65 -27.5h186q38 0 65 27.5t27 65.5z" />
    <glyph glyph-name="multiply" unicode="&#xd7;" horiz-adv-x="993" 
d="M860 315q0 -35 -24 -59l-33 -33q-24 -24 -58 -24q-35 0 -59 24l-190 191l-189 -191q-24 -24 -57 -24q-36 0 -60 24l-32 33q-25 25 -25 59q0 33 25 58l190 188l-190 191q-25 25 -25 57q0 34 25 59l32 33q25 25 60 25t57 -25l189 -190l190 190q25 25 57 25q33 0 58 -25
l35 -33q24 -24 24 -57q0 -35 -24 -59l-191 -191l191 -188q24 -24 24 -58z" />
    <glyph glyph-name="Oslash" unicode="&#xd8;" horiz-adv-x="1099" 
d="M965 1425q0 -8 -7 -22l-57 -131q45 -62 45 -144v-872q0 -106 -76 -182q-74 -74 -180 -74h-280q-41 0 -68 8l-51 -114q-15 -37 -53 -37q-13 0 -25 6l-45 18q-35 15 -35 58q0 10 6 22l64 143q-49 70 -49 152v872q0 108 73 181q75 75 183 75h280q32 0 74 -10l43 94
q15 35 53 35q9 0 25 -4l43 -18q37 -15 37 -56zM365 469l315 717q-17 10 -37 10h-186q-38 0 -65 -27t-27 -65v-635zM735 281v618l-309 -704q10 -7 31 -7h186q38 0 65 27.5t27 65.5z" />
    <glyph glyph-name="Ugrave" unicode="&#xd9;" horiz-adv-x="1099" 
d="M698 1536q0 -22 -10 -35l-6 -8q-18 -27 -51 -27q-17 0 -35 11l-264 151q-35 21 -35 66q0 29 14 49l15 20q27 37 69 37q26 0 45 -16l234 -197q24 -21 24 -51zM946 1303v-1227q0 -29 -20 -52.5t-54 -23.5h-69l-49 74q-9 16 -37 16q-13 0 -60 -29q-55 -36 -95 -51.5
t-95 -15.5h-55q-115 0 -186.5 71t-71.5 179v1059q0 32 25 56.5t57 24.5h47q32 0 57 -24.5t25 -56.5v-1029q0 -35 25.5 -60.5t60.5 -25.5h198q35 0 60.5 25.5t25.5 60.5v1029q0 32 25 56.5t57 24.5h47q32 0 57 -24.5t25 -56.5z" />
    <glyph glyph-name="Uacute" unicode="&#xda;" horiz-adv-x="1099" 
d="M784 1694q0 -45 -34 -66l-265 -151q-18 -11 -34 -11q-34 0 -52 27l-6 8q-10 13 -10 35q0 29 25 51l233 197q19 16 45 16q43 0 70 -37l14 -20q14 -20 14 -49zM946 1303v-1227q0 -29 -20 -52.5t-54 -23.5h-69l-49 74q-9 16 -37 16q-13 0 -60 -29q-55 -36 -95 -51.5
t-95 -15.5h-55q-115 0 -186.5 71t-71.5 179v1059q0 32 25 56.5t57 24.5h47q32 0 57 -24.5t25 -56.5v-1029q0 -35 25.5 -60.5t60.5 -25.5h198q35 0 60.5 25.5t25.5 60.5v1029q0 32 25 56.5t57 24.5h47q32 0 57 -24.5t25 -56.5z" />
    <glyph glyph-name="Ucircumflex" unicode="&#xdb;" horiz-adv-x="1099" 
d="M852 1540q0 -23 -16 -39l-19 -18q-17 -17 -39 -17t-37 15l-190 151l-191 -151q-15 -15 -36 -15q-22 0 -39 17l-19 18q-16 16 -16 37t18 39l174 172l7 6q21 21 36.5 30t38.5 9h54q39 0 75 -39l6 -6l177 -172q16 -16 16 -37zM946 1303v-1227q0 -29 -20 -52.5t-54 -23.5h-69
l-49 74q-9 16 -37 16q-13 0 -60 -29q-55 -36 -95 -51.5t-95 -15.5h-55q-115 0 -186.5 71t-71.5 179v1059q0 32 25 56.5t57 24.5h47q32 0 57 -24.5t25 -56.5v-1029q0 -35 25.5 -60.5t60.5 -25.5h198q35 0 60.5 25.5t25.5 60.5v1029q0 32 25 56.5t57 24.5h47q32 0 57 -24.5
t25 -56.5z" />
    <glyph glyph-name="Udieresis" unicode="&#xdc;" horiz-adv-x="1099" 
d="M819 1726v-137q0 -31 -21 -49t-53 -18h-51q-30 0 -50.5 18t-20.5 49v137q0 30 18.5 49t50.5 19h60q31 0 49 -19t18 -49zM479 1726v-137q0 -31 -20.5 -49t-52.5 -18h-52q-30 0 -50.5 18t-20.5 49v137q0 30 18.5 49t50.5 19h60q31 0 49 -19t18 -49zM946 1303v-1227
q0 -29 -20 -52.5t-54 -23.5h-69l-49 74q-9 16 -37 16q-13 0 -60 -29q-55 -36 -95 -51.5t-95 -15.5h-55q-115 0 -186.5 71t-71.5 179v1059q0 32 25 56.5t57 24.5h47q32 0 57 -24.5t25 -56.5v-1029q0 -35 25.5 -60.5t60.5 -25.5h198q35 0 60.5 25.5t25.5 60.5v1029
q0 32 25 56.5t57 24.5h47q32 0 57 -24.5t25 -56.5z" />
    <glyph glyph-name="Yacute" unicode="&#xdd;" horiz-adv-x="849" 
d="M725 1731q0 -23 -18 -41l-175 -172l-6 -7q-21 -21 -36.5 -29.5t-38.5 -8.5h-54q-40 0 -75 38l-7 7l-176 172q-16 16 -16 39q0 20 16 36l19 19q16 16 39 16q22 0 36 -14l191 -152l190 152q14 14 37 14t39 -16l19 -19q16 -16 16 -34zM829 1286q0 -14 -10 -37l-289 -555
v-612q0 -32 -24.5 -57t-56.5 -25h-48q-32 0 -57 25t-25 57v612l-288 555q-11 18 -11 33q0 57 43 78l43 22q18 11 37 11q54 0 74 -45l209 -400l207 400q20 45 74 45q18 0 36 -11l43 -22q43 -21 43 -74z" />
    <glyph glyph-name="Thorn" unicode="&#xde;" horiz-adv-x="950" 
d="M868 913v-286q0 -108 -75 -183q-73 -73 -181 -73h-247v-289q0 -32 -25 -57t-57 -25h-47q-32 0 -57 25t-25 57v1221q0 32 25 56.5t57 24.5h47q32 0 57 -24.5t25 -56.5v-213q0 -27 16 -27q20 0 59 33q41 35 76 51t82 16h39q104 0 167.5 -71.5t63.5 -178.5zM657 641v246
q0 32 -25 57t-57 25h-129q-32 0 -56.5 -25t-24.5 -57v-328h210q32 0 57 25t25 57z" />
    <glyph glyph-name="germandbls" unicode="&#xdf;" 
d="M379 1384h211q104 0 167.5 -71t63.5 -178v-275q0 -55 -39 -103t-88 -59v-6q75 -6 122.5 -52.5t47.5 -123.5v-278q0 -97 -74.5 -167.5t-189.5 -70.5h-98q-35 0 -58.5 21t-23.5 53v114h151q32 0 57 25t25 57v246q0 32 -25 57t-57 25h-69q-35 0 -58.5 21t-23.5 53v41
q0 32 23.5 52.5t58.5 20.5h26q32 0 57 25t25 57v246q0 32 -25 57t-57 25h-102q-38 0 -65 -27t-27 -65v-1473q0 -32 -25 -57t-57 -25h-47q-32 0 -57 25t-25 57v1497q0 107 74 181q75 75 182 75z" />
    <glyph glyph-name="agrave" unicode="&#xe0;" horiz-adv-x="921" 
d="M668 1126q0 -19 -11 -34l-6 -9q-17 -26 -51 -26q-18 0 -35 10l-264 152q-35 21 -35 65q0 28 15 49l14 21q27 37 70 37q25 0 45 -17l233 -196q25 -22 25 -52zM799 731v-655q0 -29 -20 -52.5t-54 -23.5h-70l-49 72q-12 18 -37 18q-20 0 -59 -33t-73 -48t-81 -15h-28
q-104 0 -172 74t-68 176v135q0 103 68 174q68 74 172 74h28q48 0 81.5 -16t72.5 -52q39 -33 59 -33q19 0 19 35v141q0 33 -23.5 56.5t-58.5 23.5h-344v127q0 29 22 45.5t58 16.5h295q127 0 194.5 -65.5t67.5 -174.5zM588 276v68q0 37 -25.5 62.5t-62.5 25.5h-113
q-37 0 -62.5 -25.5t-25.5 -62.5v-68q0 -37 25.5 -62.5t62.5 -25.5h113q37 0 62.5 25.5t25.5 62.5z" />
    <glyph glyph-name="aacute" unicode="&#xe1;" horiz-adv-x="921" 
d="M698 1284q0 -44 -34 -65l-265 -152q-17 -10 -34 -10q-35 0 -52 26l-6 9q-10 13 -10 34q0 30 25 52l233 196q20 17 45 17q43 0 70 -37l14 -21q14 -20 14 -49zM799 731v-655q0 -29 -20 -52.5t-54 -23.5h-70l-49 72q-12 18 -37 18q-20 0 -59 -33t-73 -48t-81 -15h-28
q-104 0 -172 74t-68 176v135q0 103 68 174q68 74 172 74h28q48 0 81.5 -16t72.5 -52q39 -33 59 -33q19 0 19 35v141q0 33 -23.5 56.5t-58.5 23.5h-344v127q0 29 22 45.5t58 16.5h295q127 0 194.5 -65.5t67.5 -174.5zM588 276v68q0 37 -25.5 62.5t-62.5 25.5h-113
q-37 0 -62.5 -25.5t-25.5 -62.5v-68q0 -37 25.5 -62.5t62.5 -25.5h113q37 0 62.5 25.5t25.5 62.5z" />
    <glyph glyph-name="acircumflex" unicode="&#xe2;" horiz-adv-x="921" 
d="M776 1130q0 -22 -16 -38l-19 -19q-16 -16 -39 -16q-22 0 -36 14l-191 152l-190 -152q-14 -14 -37 -14t-39 16l-19 19q-16 16 -16 36t19 39l174 172l6 7q38 38 76 38h53q41 0 76 -38l6 -7l176 -172q16 -16 16 -37zM799 731v-655q0 -29 -20 -52.5t-54 -23.5h-70l-49 72
q-12 18 -37 18q-20 0 -59 -33t-73 -48t-81 -15h-28q-104 0 -172 74t-68 176v135q0 103 68 174q68 74 172 74h28q48 0 81.5 -16t72.5 -52q39 -33 59 -33q19 0 19 35v141q0 33 -23.5 56.5t-58.5 23.5h-344v127q0 29 22 45.5t58 16.5h295q127 0 194.5 -65.5t67.5 -174.5z
M588 276v68q0 37 -25.5 62.5t-62.5 25.5h-113q-37 0 -62.5 -25.5t-25.5 -62.5v-68q0 -37 25.5 -62.5t62.5 -25.5h113q37 0 62.5 25.5t25.5 62.5z" />
    <glyph glyph-name="atilde" unicode="&#xe3;" horiz-adv-x="921" 
d="M823 1333q0 -28 -35 -63l-104 -101q-27 -27 -52 -40t-63 -13q-46 0 -73 21l-78 65q-1 1 -3 2t-3 2q-21 21 -39 21q-17 0 -41 -17l-94 -69l-2 -2q-30 -23 -58 -23q-25 0 -42 16.5t-17 41.5q0 28 35 63l104 102q26 26 51.5 39t63.5 13q49 0 73 -21l80 -63q1 -1 3 -2t3 -2
q26 -23 41 -23t35 14l4 4l93 70h2q30 23 57 23q25 0 42 -16.5t17 -41.5zM799 731v-655q0 -29 -20 -52.5t-54 -23.5h-70l-49 72q-12 18 -37 18q-20 0 -59 -33t-73 -48t-81 -15h-28q-104 0 -172 74t-68 176v135q0 103 68 174q68 74 172 74h28q48 0 81.5 -16t72.5 -52
q39 -33 59 -33q19 0 19 35v141q0 33 -23.5 56.5t-58.5 23.5h-344v127q0 29 22 45.5t58 16.5h295q127 0 194.5 -65.5t67.5 -174.5zM588 276v68q0 37 -25.5 62.5t-62.5 25.5h-113q-37 0 -62.5 -25.5t-25.5 -62.5v-68q0 -37 25.5 -62.5t62.5 -25.5h113q37 0 62.5 25.5
t25.5 62.5z" />
    <glyph glyph-name="adieresis" unicode="&#xe4;" horiz-adv-x="921" 
d="M739 1317v-137q0 -31 -20.5 -49.5t-52.5 -18.5h-52q-30 0 -50.5 18.5t-20.5 49.5v137q0 30 18.5 48.5t50.5 18.5h60q32 0 49.5 -18.5t17.5 -48.5zM399 1317v-137q0 -31 -20.5 -49.5t-52.5 -18.5h-52q-30 0 -50.5 18.5t-20.5 49.5v137q0 30 18.5 48.5t50.5 18.5h60
q32 0 49.5 -18.5t17.5 -48.5zM799 731v-655q0 -29 -20 -52.5t-54 -23.5h-70l-49 72q-12 18 -37 18q-20 0 -59 -33t-73 -48t-81 -15h-28q-104 0 -172 74t-68 176v135q0 103 68 174q68 74 172 74h28q48 0 81.5 -16t72.5 -52q39 -33 59 -33q19 0 19 35v141q0 33 -23.5 56.5
t-58.5 23.5h-344v127q0 29 22 45.5t58 16.5h295q127 0 194.5 -65.5t67.5 -174.5zM588 276v68q0 37 -25.5 62.5t-62.5 25.5h-113q-37 0 -62.5 -25.5t-25.5 -62.5v-68q0 -37 25.5 -62.5t62.5 -25.5h113q37 0 62.5 25.5t25.5 62.5z" />
    <glyph glyph-name="aring" unicode="&#xe5;" horiz-adv-x="921" 
d="M668 1249v-88q0 -54 -43.5 -94.5t-100.5 -40.5h-100q-57 0 -101 40.5t-44 94.5v88q0 52 42 93.5t101 41.5h104q59 0 100.5 -40t41.5 -95zM547 1190v31q0 51 -51 51h-43q-24 0 -39 -13.5t-15 -37.5v-31q0 -22 16.5 -36.5t37.5 -14.5h43q21 0 36 14t15 37zM799 731v-655
q0 -29 -20 -52.5t-54 -23.5h-70l-49 72q-12 18 -37 18q-20 0 -59 -33t-73 -48t-81 -15h-28q-104 0 -172 74t-68 176v135q0 103 68 174q68 74 172 74h28q48 0 81.5 -16t72.5 -52q39 -33 59 -33q19 0 19 35v141q0 33 -23.5 56.5t-58.5 23.5h-344v127q0 29 22 45.5t58 16.5h295
q127 0 194.5 -65.5t67.5 -174.5zM588 276v68q0 37 -25.5 62.5t-62.5 25.5h-113q-37 0 -62.5 -25.5t-25.5 -62.5v-68q0 -37 25.5 -62.5t62.5 -25.5h113q37 0 62.5 25.5t25.5 62.5z" />
    <glyph glyph-name="ae" unicode="&#xe6;" horiz-adv-x="1376" 
d="M1298 715v-183q0 -54 -36.5 -90t-90.5 -36h-372v-134q0 -36 24 -60t60 -24h311v-114q0 -32 -23.5 -53t-58.5 -21h-416l-49 72q-12 18 -37 18q-15 0 -55 -29q-47 -35 -89.5 -51t-109.5 -16h-28q-104 0 -172 74t-68 176v135q0 103 68 174q68 74 172 74h28q48 0 81.5 -16
t72.5 -52q39 -33 59 -33q19 0 19 35v141q0 33 -23.5 56.5t-58.5 23.5h-344v127q0 29 22 45.5t58 16.5h295q92 0 168 -49q76 49 139 49h198q108 0 181 -76q75 -72 75 -180zM799 575h288v125q0 32 -24.5 57t-56.5 25h-125q-32 0 -57 -25t-25 -57v-125zM588 276v68
q0 37 -25.5 62.5t-62.5 25.5h-113q-37 0 -62.5 -25.5t-25.5 -62.5v-68q0 -37 25.5 -62.5t62.5 -25.5h113q37 0 62.5 25.5t25.5 62.5z" />
    <glyph glyph-name="ccedilla" unicode="&#xe7;" horiz-adv-x="751" 
d="M340 -201v203q-95 17 -156 87.5t-61 166.5v459q0 106 74 180q76 76 182 76h221q35 0 58.5 -21t23.5 -53v-115h-256q-38 0 -65 -27t-27 -65v-409q0 -38 27 -65.5t65 -27.5h279v-114q0 -32 -23.5 -53t-58.5 -21h-156v-88h41q48 0 87.5 -40.5t39.5 -94.5v-94
q0 -54 -43.5 -94t-104.5 -40h-110q-30 0 -49 19t-19 43v51h144q22 0 38.5 12.5t16.5 34.5v43q0 23 -17 35t-42 12h-109z" />
    <glyph glyph-name="egrave" unicode="&#xe8;" horiz-adv-x="911" 
d="M674 1126q0 -21 -10 -34l-7 -9q-17 -26 -51 -26q-18 0 -35 10l-264 152q-35 21 -35 65q0 28 15 49l14 21q27 37 70 37q25 0 45 -17l233 -196q25 -22 25 -52zM834 715v-183q0 -54 -36.5 -90t-90.5 -36h-373v-134q0 -36 24 -60t60 -24h311v-114q0 -32 -23.5 -53t-58.5 -21
h-268q-105 0 -182 74q-74 77 -74 182v459q0 106 74 180q76 76 182 76h199q107 0 180 -76q76 -73 76 -180zM334 575h289v125q0 32 -25 57t-57 25h-125q-32 0 -57 -25t-25 -57v-125z" />
    <glyph glyph-name="eacute" unicode="&#xe9;" horiz-adv-x="911" 
d="M723 1284q0 -44 -35 -65l-264 -152q-17 -10 -35 -10q-34 0 -51 26l-6 9q-10 13 -10 34q0 31 24 52l234 196q20 17 45 17q42 0 69 -37l15 -21q14 -20 14 -49zM834 715v-183q0 -54 -36.5 -90t-90.5 -36h-373v-134q0 -36 24 -60t60 -24h311v-114q0 -32 -23.5 -53t-58.5 -21
h-268q-105 0 -182 74q-74 77 -74 182v459q0 106 74 180q76 76 182 76h199q107 0 180 -76q76 -73 76 -180zM334 575h289v125q0 32 -25 57t-57 25h-125q-32 0 -57 -25t-25 -57v-125z" />
    <glyph glyph-name="ecircumflex" unicode="&#xea;" horiz-adv-x="911" 
d="M782 1130q0 -22 -16 -38l-18 -19q-16 -16 -39 -16t-37 14l-191 152l-190 -152q-14 -14 -37 -14t-39 16l-18 19q-17 17 -17 36q0 20 19 39l174 172l6 7q38 38 76 38h53q41 0 76 -38l6 -7l176 -172q16 -16 16 -37zM834 715v-183q0 -54 -36.5 -90t-90.5 -36h-373v-134
q0 -36 24 -60t60 -24h311v-114q0 -32 -23.5 -53t-58.5 -21h-268q-105 0 -182 74q-74 77 -74 182v459q0 106 74 180q76 76 182 76h199q107 0 180 -76q76 -73 76 -180zM334 575h289v125q0 32 -25 57t-57 25h-125q-32 0 -57 -25t-25 -57v-125z" />
    <glyph glyph-name="edieresis" unicode="&#xeb;" horiz-adv-x="911" 
d="M754 1317v-137q0 -31 -21 -49.5t-53 -18.5h-51q-30 0 -51 18.5t-21 49.5v137q0 30 19 48.5t51 18.5h59q32 0 50 -18.5t18 -48.5zM414 1317v-137q0 -31 -21 -49.5t-53 -18.5h-51q-30 0 -51 18.5t-21 49.5v137q0 30 19 48.5t51 18.5h59q32 0 50 -18.5t18 -48.5zM834 715
v-183q0 -54 -36.5 -90t-90.5 -36h-373v-134q0 -36 24 -60t60 -24h311v-114q0 -32 -23.5 -53t-58.5 -21h-268q-105 0 -182 74q-74 77 -74 182v459q0 106 74 180q76 76 182 76h199q107 0 180 -76q76 -73 76 -180zM334 575h289v125q0 32 -25 57t-57 25h-125q-32 0 -57 -25
t-25 -57v-125z" />
    <glyph glyph-name="igrave" unicode="&#xec;" horiz-adv-x="493" 
d="M453 1126q0 -19 -11 -34l-6 -9q-17 -26 -51 -26q-18 0 -35 10l-264 152q-35 21 -35 65q0 28 15 49l14 21q27 37 70 37q25 0 45 -17l233 -196q25 -22 25 -52zM350 889v-807q0 -35 -23.5 -58.5t-56.5 -23.5h-47q-32 0 -58 25t-26 57v807q0 32 25 57t57 25h47q32 0 57 -25
t25 -57z" />
    <glyph glyph-name="iacute" unicode="&#xed;" horiz-adv-x="493" 
d="M442 1284q0 -44 -34 -65l-265 -152q-17 -10 -34 -10q-35 0 -52 26l-6 9q-10 13 -10 34q0 30 25 52l233 196q20 17 45 17q43 0 70 -37l14 -21q14 -20 14 -49zM346 889v-807q0 -35 -23.5 -58.5t-56.5 -23.5h-47q-32 0 -58 25t-26 57v807q0 32 25 57t57 25h47q32 0 57 -25
t25 -57z" />
    <glyph glyph-name="icircumflex" unicode="&#xee;" horiz-adv-x="493" 
d="M352 889v-807q0 -32 -25 -57t-57 -25h-47q-32 0 -57 25t-25 57v807q0 32 25 57t57 25h47q32 0 57 -25t25 -57zM547 1130q0 -21 -17 -38l-18 -19q-16 -16 -39 -16t-37 14l-190 152l-191 -152q-14 -14 -37 -14q-22 0 -38 16l-19 19q-16 16 -16 36q0 21 18 39l174 172l6 7
q38 38 76 38h53q41 0 76 -38l6 -7l176 -172q17 -17 17 -37z" />
    <glyph glyph-name="idieresis" unicode="&#xef;" horiz-adv-x="493" 
d="M354 889v-807q0 -32 -25 -57t-57 -25h-47q-32 0 -57 25t-25 57v807q0 32 25 57t57 25h47q32 0 57 -25t25 -57zM516 1317v-137q0 -31 -21 -49.5t-53 -18.5h-51q-31 0 -52.5 18.5t-21.5 49.5v137q0 30 19 48.5t51 18.5h59q32 0 51 -18.5t19 -48.5zM174 1317v-137
q0 -32 -20 -50t-52 -18h-51q-31 0 -52.5 18.5t-21.5 49.5v137q0 30 19 48.5t51 18.5h59q32 0 50 -18.5t18 -48.5z" />
    <glyph glyph-name="eth" unicode="&#xf0;" horiz-adv-x="954" 
d="M893 1292q0 -25 -25 -47l-59 -45q10 -42 10 -72v-1052q0 -29 -20 -52.5t-54 -23.5h-69l-49 72q-12 18 -37 18q-21 0 -60 -33q-40 -33 -73 -48t-80 -15h-29q-104 0 -172 74q-67 73 -67 176v485q0 104 67 174q68 74 172 74h29q48 0 81 -16t72 -52q38 -32 60 -32q18 0 18 34
v133l-59 -45q-15 -12 -37 -12q-27 0 -47 23l-31 37q-12 15 -12 34q0 31 24 49l84 66h-211q-35 0 -58 21t-23 53v114h325q80 0 150 -49l55 43q16 13 37 13q25 0 45 -23l31 -39q12 -15 12 -37zM608 276v418q0 37 -25.5 62.5t-62.5 25.5h-112q-37 0 -63 -25.5t-26 -62.5v-418
q0 -37 26 -62.5t63 -25.5h112q37 0 62.5 25.5t25.5 62.5z" />
    <glyph glyph-name="ntilde" unicode="&#xf1;" 
d="M834 1333q0 -28 -35 -63l-105 -101q-27 -27 -51.5 -40t-62.5 -13q-47 0 -74 21l-78 65q-1 1 -3 2t-3 2q-21 21 -39 21q-17 0 -41 -17l-94 -69l-2 -2q-30 -23 -58 -23q-25 0 -42 16.5t-17 41.5q0 28 35 63l104 102q26 26 51.5 39t63.5 13q50 0 74 -21l80 -63q1 -1 3 -2
t3 -2q26 -23 41 -23q14 0 34 14l5 4l92 70h2q30 23 57 23q25 0 42.5 -16.5t17.5 -41.5zM834 729v-647q0 -32 -25 -57t-57 -25h-47q-32 0 -57 25t-25 57v612q0 37 -25.5 62.5t-62.5 25.5h-113q-37 0 -62.5 -25.5t-25.5 -62.5v-612q0 -32 -25 -57t-57 -25h-47q-32 0 -57 25
t-25 57v813q0 29 20 52.5t54 23.5h69l51 -74q14 -20 33 -20q20 0 60 32q50 36 85 52t80 16h31q102 0 165 -71.5t63 -176.5z" />
    <glyph glyph-name="ograve" unicode="&#xf2;" 
d="M692 1126q0 -21 -10 -34l-6 -9q-17 -26 -51 -26q-18 0 -35 10l-264 152q-35 21 -35 65q0 29 14 49l14 21q27 37 70 37q25 0 45 -17l234 -196q24 -21 24 -52zM834 715v-459q0 -106 -76 -182q-74 -74 -180 -74h-199q-105 0 -182 74q-74 77 -74 182v459q0 106 74 180
q76 76 182 76h199q107 0 180 -76q76 -73 76 -180zM623 281v409q0 38 -27.5 65t-65.5 27h-104q-38 0 -65 -27t-27 -65v-409q0 -38 27 -65.5t65 -27.5h104q38 0 65.5 27.5t27.5 65.5z" />
    <glyph glyph-name="oacute" unicode="&#xf3;" 
d="M707 1284q0 -44 -35 -65l-264 -152q-17 -10 -35 -10q-34 0 -51 26l-7 9q-10 13 -10 34q0 30 25 52l233 196q20 17 45 17q43 0 70 -37l14 -21q15 -21 15 -49zM834 715v-459q0 -106 -76 -182q-74 -74 -180 -74h-199q-105 0 -182 74q-74 77 -74 182v459q0 106 74 180
q76 76 182 76h199q107 0 180 -76q76 -73 76 -180zM623 281v409q0 38 -27.5 65t-65.5 27h-104q-38 0 -65 -27t-27 -65v-409q0 -38 27 -65.5t65 -27.5h104q38 0 65.5 27.5t27.5 65.5z" />
    <glyph glyph-name="ocircumflex" unicode="&#xf4;" 
d="M780 1130q0 -22 -16 -38l-19 -19q-16 -16 -38 -16q-23 0 -37 14l-191 152l-190 -152q-14 -14 -37 -14t-39 16l-18 19q-17 17 -17 36q0 20 19 39l174 172l6 7q38 38 76 38h53q41 0 76 -38l6 -7l176 -172q16 -16 16 -37zM834 715v-459q0 -106 -76 -182q-74 -74 -180 -74
h-199q-105 0 -182 74q-74 77 -74 182v459q0 106 74 180q76 76 182 76h199q107 0 180 -76q76 -73 76 -180zM623 281v409q0 38 -27.5 65t-65.5 27h-104q-38 0 -65 -27t-27 -65v-409q0 -38 27 -65.5t65 -27.5h104q38 0 65.5 27.5t27.5 65.5z" />
    <glyph glyph-name="otilde" unicode="&#xf5;" 
d="M831 1333q0 -29 -34 -63l-105 -101q-27 -27 -51.5 -40t-62.5 -13q-47 0 -74 21l-78 65q-1 1 -3 2t-3 2q-21 21 -39 21q-17 0 -41 -17l-94 -69l-2 -2q-30 -23 -58 -23q-25 0 -42 16.5t-17 41.5q0 28 35 63l104 102q26 26 51.5 39t63.5 13q50 0 74 -21l80 -63q1 -1 3 -2
t3 -2q26 -23 41 -23q14 0 34 14l5 4l92 70h2q30 23 57 23q25 0 42 -16.5t17 -41.5zM834 715v-459q0 -106 -76 -182q-74 -74 -180 -74h-199q-105 0 -182 74q-74 77 -74 182v459q0 106 74 180q76 76 182 76h199q107 0 180 -76q76 -73 76 -180zM623 281v409q0 38 -27.5 65
t-65.5 27h-104q-38 0 -65 -27t-27 -65v-409q0 -38 27 -65.5t65 -27.5h104q38 0 65.5 27.5t27.5 65.5z" />
    <glyph glyph-name="odieresis" unicode="&#xf6;" 
d="M748 1317v-137q0 -31 -21 -49.5t-53 -18.5h-51q-30 0 -51 18.5t-21 49.5v137q0 30 19 48.5t51 18.5h59q32 0 50 -18.5t18 -48.5zM408 1317v-137q0 -31 -21 -49.5t-53 -18.5h-51q-30 0 -51 18.5t-21 49.5v137q0 30 19 48.5t51 18.5h59q32 0 50 -18.5t18 -48.5zM834 715
v-459q0 -106 -76 -182q-74 -74 -180 -74h-199q-105 0 -182 74q-74 77 -74 182v459q0 106 74 180q76 76 182 76h199q107 0 180 -76q76 -73 76 -180zM623 281v409q0 38 -27.5 65t-65.5 27h-104q-38 0 -65 -27t-27 -65v-409q0 -38 27 -65.5t65 -27.5h104q38 0 65.5 27.5
t27.5 65.5z" />
    <glyph glyph-name="divide" unicode="&#xf7;" horiz-adv-x="1024" 
d="M616 938v-98q0 -35 -23 -58.5t-58 -23.5h-50q-33 0 -56 23.5t-23 58.5v98q0 32 24.5 57t56.5 25h45q35 0 59.5 -23.5t24.5 -58.5zM942 580v-37q0 -35 -20.5 -55.5t-55.5 -20.5h-708q-35 0 -55.5 20.5t-20.5 55.5v37q0 35 20.5 55t55.5 20h708q35 0 55.5 -20t20.5 -55z
M616 283v-99q0 -35 -23 -58.5t-58 -23.5h-50q-33 0 -56 23.5t-23 58.5v99q0 32 24.5 57t56.5 25h48q35 0 58 -23.5t23 -58.5z" />
    <glyph glyph-name="oslash" unicode="&#xf8;" 
d="M834 715v-459q0 -106 -76 -182q-74 -74 -180 -74h-199q-6 0 -12 2h-15l-47 -106q-15 -37 -53 -37q-16 0 -25 6l-43 20q-39 17 -39 56q0 1 1 3t2 5.5t2 5.5q2 2 2 8l49 109q-78 75 -78 184v459q0 106 74 180q76 76 182 76h199h14q6 -2 12 -2l37 86q15 37 55 37q11 0 25 -7
l43 -18q35 -15 35 -53q0 -21 -2 -27l-41 -88q78 -78 78 -184zM334 367l186 415h-104q-32 0 -57 -25t-25 -57v-333zM623 270v332l-187 -414h105q32 0 57 25t25 57z" />
    <glyph glyph-name="ugrave" unicode="&#xf9;" 
d="M664 1126q0 -19 -11 -34l-6 -9q-17 -26 -51 -26q-18 0 -35 10l-264 152q-35 21 -35 65q0 29 14 49l15 21q27 37 69 37q26 0 46 -17l233 -196q25 -22 25 -52zM834 889v-813q0 -29 -20 -52.5t-54 -23.5h-70l-49 72q-12 18 -37 18q-20 0 -59 -33t-73 -48t-81 -15h-29
q-104 0 -172 74q-67 73 -67 176v645q0 32 25 57t57 25h47q32 0 57 -25t25 -57v-613q0 -37 25.5 -62.5t62.5 -25.5h113q37 0 62.5 25.5t25.5 62.5v613q0 32 25 57t57 25h47q32 0 57 -25t25 -57z" />
    <glyph glyph-name="uacute" unicode="&#xfa;" 
d="M696 1284q0 -44 -34 -65l-265 -152q-17 -10 -35 -10q-34 0 -51 26l-6 9q-10 13 -10 34q0 31 24 52l234 196q20 17 45 17q43 0 70 -37l14 -21q14 -20 14 -49zM834 889v-813q0 -29 -20 -52.5t-54 -23.5h-70l-49 72q-12 18 -37 18q-20 0 -59 -33t-73 -48t-81 -15h-29
q-104 0 -172 74q-67 73 -67 176v645q0 32 25 57t57 25h47q32 0 57 -25t25 -57v-613q0 -37 25.5 -62.5t62.5 -25.5h113q37 0 62.5 25.5t25.5 62.5v613q0 32 25 57t57 25h47q32 0 57 -25t25 -57z" />
    <glyph glyph-name="ucircumflex" unicode="&#xfb;" 
d="M770 1130q0 -22 -16 -38l-19 -19q-16 -16 -39 -16t-37 14l-190 152l-190 -152q-14 -14 -37 -14t-39 16l-19 19q-16 16 -16 36q0 21 18 39l174 172l7 7q21 21 36.5 29.5t38.5 8.5h54q40 0 75 -38l7 -7l176 -172q16 -16 16 -37zM834 889v-813q0 -29 -20 -52.5t-54 -23.5
h-70l-49 72q-12 18 -37 18q-20 0 -59 -33t-73 -48t-81 -15h-29q-104 0 -172 74q-67 73 -67 176v645q0 32 25 57t57 25h47q32 0 57 -25t25 -57v-613q0 -37 25.5 -62.5t62.5 -25.5h113q37 0 62.5 25.5t25.5 62.5v613q0 32 25 57t57 25h47q32 0 57 -25t25 -57z" />
    <glyph glyph-name="udieresis" unicode="&#xfc;" 
d="M737 1317v-137q0 -31 -20.5 -49.5t-52.5 -18.5h-52q-30 0 -50.5 18.5t-20.5 49.5v137q0 30 18.5 48.5t50.5 18.5h60q32 0 49.5 -18.5t17.5 -48.5zM397 1317v-137q0 -31 -20.5 -49.5t-52.5 -18.5h-52q-30 0 -50.5 18.5t-20.5 49.5v137q0 30 18.5 48.5t50.5 18.5h60
q32 0 49.5 -18.5t17.5 -48.5zM834 889v-813q0 -29 -20 -52.5t-54 -23.5h-70l-49 72q-12 18 -37 18q-20 0 -59 -33t-73 -48t-81 -15h-29q-104 0 -172 74q-67 73 -67 176v645q0 32 25 57t57 25h47q32 0 57 -25t25 -57v-613q0 -37 25.5 -62.5t62.5 -25.5h113q37 0 62.5 25.5
t25.5 62.5v613q0 32 25 57t57 25h47q32 0 57 -25t25 -57z" />
    <glyph glyph-name="yacute" unicode="&#xfd;" horiz-adv-x="897" 
d="M756 1321q0 -22 -19 -41l-174 -172l-6 -6q-21 -21 -37 -30t-39 -9h-53q-40 0 -76 39l-6 6l-176 172q-16 16 -16 39q0 21 16 37l18 18q17 17 39 17t37 -15l191 -151l190 151q15 15 37 15t39 -17l18 -18q17 -17 17 -35zM887 883q0 -15 -4 -27l-480 -1251q-20 -51 -73 -51
q-14 0 -29 6l-31 12q-51 20 -51 74q0 13 6 28l123 328q-9 7 -20 39l-312 811q-6 12 -6 25q0 56 49 77l45 17q15 6 31 6q54 0 72 -49l137 -350q30 -75 63 -188t46 -167h6q3 8 7 23t12.5 47.5t17.5 66.5q28 100 69 215l140 353q21 49 71 49q16 0 31 -6l31 -13q49 -21 49 -75z
" />
    <glyph glyph-name="thorn" unicode="&#xfe;" horiz-adv-x="942" 
d="M834 729v-485q0 -102 -68 -176t-172 -74h-29q-47 0 -80 15t-73 48q-39 33 -60 33q-18 0 -18 -22v-437q0 -32 -25 -57t-57 -25h-47q-32 0 -57 25t-25 57v1672q0 32 25 56.5t57 24.5h47q32 0 57 -24.5t25 -56.5v-396q0 -30 18 -30q22 0 60 32q39 36 72 52t81 16h29
q104 0 172 -74q68 -71 68 -174zM623 276v418q0 37 -25.5 62.5t-62.5 25.5h-113q-37 0 -62.5 -25.5t-25.5 -62.5v-418q0 -37 25.5 -62.5t62.5 -25.5h113q37 0 62.5 25.5t25.5 62.5z" />
    <glyph glyph-name="ydieresis" unicode="&#xff;" horiz-adv-x="897" 
d="M717 1317v-137q0 -31 -21 -49.5t-53 -18.5h-51q-30 0 -51 18.5t-21 49.5v137q0 30 19 48.5t51 18.5h59q32 0 50 -18.5t18 -48.5zM377 1317v-137q0 -31 -21 -49.5t-53 -18.5h-51q-30 0 -51 18.5t-21 49.5v137q0 30 19 48.5t51 18.5h59q32 0 50 -18.5t18 -48.5zM887 883
q0 -15 -4 -27l-480 -1251q-20 -51 -73 -51q-14 0 -29 6l-31 12q-51 20 -51 74q0 13 6 28l123 328q-9 7 -20 39l-312 811q-6 12 -6 25q0 56 49 77l45 17q15 6 31 6q54 0 72 -49l137 -350q30 -75 63 -188t46 -167h6q3 8 7 23t12.5 47.5t17.5 66.5q28 100 69 215l140 353
q21 49 71 49q16 0 31 -6l31 -13q49 -21 49 -75z" />
    <glyph glyph-name="OE" unicode="&#x152;" horiz-adv-x="1476" 
d="M1415 115v-41q0 -32 -22.5 -53t-57.5 -21h-925q-106 0 -183 74q-73 76 -73 182v872q0 108 73 181q75 75 183 75h979v-114q0 -32 -23.5 -53t-58.5 -21h-357v-410h310q35 0 58 -20.5t23 -52.5v-41q0 -32 -23 -53t-58 -21h-310v-410h385q35 0 57.5 -20.5t22.5 -52.5z
M457 188h282v1008h-282q-38 0 -65 -27t-27 -65v-823q0 -38 27 -65.5t65 -27.5z" />
    <glyph glyph-name="oe" unicode="&#x153;" horiz-adv-x="1411" 
d="M1333 715v-183q0 -54 -36.5 -90t-90.5 -36h-372v-134q0 -36 24 -60t60 -24h311v-114q0 -32 -23.5 -53t-58.5 -21h-268q-69 0 -146 55q-70 -55 -155 -55h-199q-105 0 -182 74q-74 77 -74 182v459q0 106 74 180q76 76 182 76h199q77 0 153 -58q73 58 148 58h198
q107 0 180 -76q76 -73 76 -180zM834 575h288v125q0 32 -25 57t-57 25h-125q-32 0 -56.5 -25t-24.5 -57v-125zM623 281v409q0 38 -27.5 65t-65.5 27h-104q-38 0 -65 -27t-27 -65v-409q0 -38 27 -65.5t65 -27.5h104q38 0 65.5 27.5t27.5 65.5z" />
    <glyph glyph-name="Scaron" unicode="&#x160;" horiz-adv-x="892" 
d="M756 1731q0 -22 -19 -41l-174 -172l-6 -7q-38 -38 -76 -38h-53q-41 0 -76 38l-6 7l-176 172q-16 16 -16 39q0 20 16 36l18 19q16 16 39 16t37 -14l191 -152l190 152q14 14 37 14t39 -16l18 -19q17 -17 17 -34zM799 530v-274q0 -106 -76 -182q-74 -74 -180 -74h-383
q-35 0 -58.5 21t-23.5 53v114h418q38 0 65 27.5t27 65.5v225q0 38 -27 65t-65 27h-146q-105 0 -182 74q-74 77 -74 182v274q0 107 74 181q75 75 182 75h307q35 0 58.5 -20.5t23.5 -52.5v-115h-342q-38 0 -65 -27t-27 -65v-225q0 -38 27 -65.5t65 -27.5h146q108 0 180 -75
q76 -73 76 -181z" />
    <glyph glyph-name="scaron" unicode="&#x161;" horiz-adv-x="811" 
d="M715 1321q0 -22 -19 -41l-174 -172l-6 -6q-21 -21 -37 -30t-39 -9h-53q-40 0 -76 39l-6 6l-176 172q-16 16 -16 39q0 21 16 37l18 18q17 17 39 17t37 -15l191 -151l190 151q15 15 37 15t39 -17l18 -18q17 -17 17 -35zM737 336v-80q0 -107 -75 -182q-77 -74 -183 -74h-311
q-35 0 -58.5 21t-23.5 53v114h346q41 0 66.5 30t25.5 73q0 49 -24.5 83t-67.5 34h-125q-103 0 -168 63.5t-65 165.5v78q0 107 73 180q76 76 183 76h266q35 0 57.5 -21t22.5 -53v-115h-299q-41 0 -65.5 -30t-24.5 -74q0 -43 24.5 -73t65.5 -30h129q104 0 167.5 -66.5
t63.5 -172.5z" />
    <glyph glyph-name="Ydieresis" unicode="&#x178;" horiz-adv-x="849" 
d="M694 1726v-137q0 -31 -20.5 -49t-52.5 -18h-52q-30 0 -50.5 18t-20.5 49v137q0 30 18.5 49t50.5 19h60q31 0 49 -19t18 -49zM354 1726v-137q0 -31 -20.5 -49t-52.5 -18h-52q-30 0 -50.5 18t-20.5 49v137q0 30 18.5 49t50.5 19h60q31 0 49 -19t18 -49zM829 1286
q0 -14 -10 -37l-289 -555v-612q0 -32 -24.5 -57t-56.5 -25h-48q-32 0 -57 25t-25 57v612l-288 555q-11 18 -11 33q0 57 43 78l43 22q18 11 37 11q54 0 74 -45l209 -400l207 400q20 45 74 45q18 0 36 -11l43 -22q43 -21 43 -74z" />
    <glyph glyph-name="florin" unicode="&#x192;" horiz-adv-x="804" 
d="M602 1384h316l-19 -106q-6 -32 -35 -57t-61 -25h-189q-38 0 -70 -27t-38 -65l-23 -133h203q31 0 50.5 -19.5t19.5 -48.5q0 -2 -2 -6v-8l-4 -25q-6 -32 -35.5 -57t-61.5 -25h-202l-175 -977q-20 -116 -103 -186t-193 -70h-111q-30 0 -49 19t-19 49v14l21 107h141
q38 0 70.5 27t38.5 65l168 952h-88q-29 0 -49.5 19.5t-20.5 48.5q0 2 2 6v8l4 25q6 35 34.5 58.5t61.5 23.5h88l29 157q20 116 101.5 186t199.5 70z" />
    <glyph glyph-name="circumflex" unicode="&#x2c6;" horiz-adv-x="716" 
d="M659 1130q0 -22 -16 -38l-18 -19q-16 -16 -39 -16t-37 14l-191 152l-190 -152q-14 -14 -37 -14t-39 16l-18 19q-17 17 -17 36q0 20 19 39l174 172l6 7q38 38 76 38h53q41 0 76 -38l6 -7l176 -172q16 -16 16 -37z" />
    <glyph glyph-name="tilde" unicode="&#x2dc;" horiz-adv-x="716" 
d="M711 1327q0 -28 -35 -63l-105 -101q-27 -27 -51.5 -40t-62.5 -13q-48 0 -74 20l-78 66q-1 1 -3 2t-3 2q-21 21 -39 21q-17 0 -41 -17l-94 -69l-2 -2q-30 -23 -57 -23q-25 0 -42.5 16.5t-17.5 40.5q0 29 35 64l104 102q26 26 51.5 38.5t63.5 12.5q51 0 74 -20l80 -64
q1 -1 3 -2t3 -2q25 -22 41 -22q15 0 35 14l4 4l92 70h2q28 22 57 22q25 0 42.5 -16.5t17.5 -40.5z" />
    <glyph glyph-name="endash" unicode="&#x2013;" horiz-adv-x="1038" 
d="M977 578v-33q0 -29 -22.5 -50.5t-51.5 -21.5h-770q-29 0 -50.5 21.5t-21.5 50.5v33q0 29 21.5 50t50.5 21h770q30 0 52 -21t22 -50z" />
    <glyph glyph-name="emdash" unicode="&#x2014;" horiz-adv-x="1605" 
d="M1544 578v-33q0 -29 -22.5 -50.5t-51.5 -21.5h-1337q-29 0 -50.5 21.5t-21.5 50.5v33q0 29 21.5 50t50.5 21h1337q30 0 52 -21t22 -50z" />
    <glyph glyph-name="quoteleft" unicode="&#x2018;" horiz-adv-x="507" 
d="M377 1065v-139q0 -32 -25 -57t-57 -25h-82q-32 0 -57 25t-25 57v174q0 65 37 129l82 141q10 19 33 19q3 0 18 -5l16 -10q17 -10 17 -28q0 -9 -4 -21l-43 -106q-6 -12 -6 -35q0 -18 30 -33q66 -34 66 -86z" />
    <glyph glyph-name="quoteright" unicode="&#x2019;" horiz-adv-x="507" 
d="M377 1303v-175q0 -65 -37 -129l-82 -141q-9 -18 -33 -18q-6 0 -18 4l-17 10q-16 10 -16 29q0 8 4 20l43 107q6 12 6 34q0 18 -30 33q-66 34 -66 86v140q0 32 25 56.5t57 24.5h82q32 0 57 -24.5t25 -56.5z" />
    <glyph glyph-name="quotesinglbase" unicode="&#x201a;" horiz-adv-x="507" 
d="M377 219v-174q0 -65 -37 -129l-82 -141q-10 -19 -33 -19q-6 0 -18 4l-17 11q-16 10 -16 28q0 9 4 21l43 106q6 12 6 35q0 18 -30 33q-66 34 -66 86v139q0 32 25 57t57 25h82q32 0 57 -25t25 -57z" />
    <glyph glyph-name="quotedblleft" unicode="&#x201c;" horiz-adv-x="905" 
d="M377 1065v-139q0 -32 -25 -57t-57 -25h-82q-32 0 -57 25t-25 57v174q0 65 37 129l82 141q10 19 33 19q3 0 18 -5l16 -10q17 -10 17 -28q0 -9 -4 -21l-43 -106q-6 -12 -6 -35q0 -18 30 -33q66 -34 66 -86zM774 1065v-139q0 -32 -25 -57t-57 -25h-82q-32 0 -57 25t-25 57
v174q0 65 37 129l82 141q9 19 33 19q3 0 18 -5l17 -10q16 -10 16 -28q0 -9 -4 -21l-43 -106q-6 -12 -6 -35q0 -18 31 -33q65 -33 65 -86z" />
    <glyph glyph-name="quotedblright" unicode="&#x201d;" horiz-adv-x="905" 
d="M377 1303v-175q0 -65 -37 -129l-82 -141q-9 -18 -33 -18q-6 0 -18 4l-17 10q-16 10 -16 29q0 8 4 20l43 107q6 12 6 34q0 18 -30 33q-66 34 -66 86v140q0 32 25 56.5t57 24.5h82q32 0 57 -24.5t25 -56.5zM774 1303v-175q0 -65 -37 -129l-82 -141q-9 -18 -32 -18
q-7 0 -19 4l-16 10q-17 10 -17 29q0 8 4 20l43 107q7 14 7 34q0 18 -31 33q-66 34 -66 86v140q0 32 25 56.5t57 24.5h82q32 0 57 -24.5t25 -56.5z" />
    <glyph glyph-name="quotedblbase" unicode="&#x201e;" horiz-adv-x="905" 
d="M774 219v-174q0 -65 -37 -129l-82 -141q-9 -19 -32 -19q-7 0 -19 4l-16 11q-17 10 -17 28q0 9 4 21l43 106q7 14 7 35q0 17 -31 33q-66 34 -66 86v139q0 32 25 57t57 25h82q32 0 57 -25t25 -57zM377 219v-174q0 -65 -37 -129l-82 -141q-10 -19 -33 -19q-6 0 -18 4l-17 11
q-16 10 -16 28q0 9 4 21l43 106q6 12 6 35q0 18 -30 33q-66 34 -66 86v139q0 32 25 57t57 25h82q32 0 57 -25t25 -57z" />
    <glyph glyph-name="dagger" unicode="&#x2020;" horiz-adv-x="942" 
d="M881 895v-64q0 -32 -21 -56.5t-51 -24.5h-4h-6l-248 41l47 -1160q0 -35 -24.5 -58.5t-57.5 -23.5h-90q-33 0 -57.5 23.5t-24.5 58.5l47 1160l-248 -41h-6h-4q-30 0 -51 24.5t-21 56.5v64q0 33 21 58.5t51 25.5q2 0 4 -2h6l244 -41l-43 367q0 36 24.5 58.5t57.5 22.5h90
q33 0 57.5 -22.5t24.5 -58.5l-43 -367l244 41h6q2 2 4 2q30 0 51 -25.5t21 -58.5z" />
    <glyph glyph-name="daggerdbl" unicode="&#x2021;" horiz-adv-x="983" 
d="M901 139v-63q0 -32 -21 -58t-51 -26q-2 0 -4 2h-6l-244 41l43 -404q0 -35 -24 -58.5t-57 -23.5h-91q-33 0 -57 23.5t-24 58.5l43 404l-244 -41h-6q-2 -2 -4 -2q-30 0 -51 26t-21 58v63q0 33 21 58.5t51 25.5q2 0 4 -2h6l248 -41q-2 11 -8.5 42.5t-10.5 53.5
q-28 140 -28 203q0 68 28 211q17 76 19 101l-248 -41h-6h-4q-30 0 -51 24.5t-21 56.5v64q0 33 21 58.5t51 25.5q2 0 4 -2h6l244 -41l-43 367q0 36 24 58.5t57 22.5h91q33 0 57 -22.5t24 -58.5l-43 -367l244 41h6q2 2 4 2q30 0 51 -25.5t21 -58.5v-64q0 -33 -23.5 -57
t-58.5 -24l-248 41q1 -11 21 -113q26 -127 26 -199q0 -69 -26 -190q-21 -106 -21 -109l248 41q35 0 58.5 -24.5t23.5 -57.5z" />
    <glyph glyph-name="bullet" unicode="&#x2022;" horiz-adv-x="829" 
d="M707 623v-123q0 -98 -66 -164t-168 -66h-117q-102 0 -167.5 66t-65.5 164v123q0 98 65.5 163.5t167.5 65.5h117q102 0 168 -65.5t66 -163.5z" />
    <glyph glyph-name="ellipsis" unicode="&#x2026;" horiz-adv-x="1646" 
d="M367 219v-137q0 -32 -25 -57t-57 -25h-82q-32 0 -57 25t-25 57v137q0 32 25 57t57 25h82q32 0 57 -25t25 -57zM946 219v-137q0 -32 -25 -57t-57 -25h-82q-32 0 -57 25t-25 57v137q0 32 25 57t57 25h82q32 0 57 -25t25 -57zM1526 219v-137q0 -32 -25 -57t-57 -25h-82
q-32 0 -57 25t-25 57v137q0 32 25 57t57 25h82q32 0 57 -25t25 -57z" />
    <glyph glyph-name="perthousand" unicode="&#x2030;" horiz-adv-x="2217" 
d="M2157 621v-455q0 -69 -56.5 -117.5t-134.5 -48.5h-147q-78 0 -134.5 48.5t-56.5 117.5v455q0 69 56.5 117t134.5 48h147q78 0 134.5 -48t56.5 -117zM1989 215v356q0 26 -18 44t-44 18h-69q-26 0 -44 -18t-18 -44v-356q0 -26 18 -43.5t44 -17.5h69q26 0 44 17.5t18 43.5z
M1495 621v-455q0 -69 -55.5 -117.5t-134.5 -48.5h-148q-79 0 -134.5 48.5t-55.5 117.5v455q0 69 55.5 117t134.5 48h148q79 0 134.5 -48t55.5 -117zM1233 1298l-778 -1286q-19 -28 -54 -28q-19 0 -32 8l-21 14q-29 16 -29 53q0 16 9 31l778 1284q17 33 53 33q14 0 31 -10
l22 -15q29 -19 29 -53q0 -18 -8 -31zM590 1219v-455q0 -69 -56 -117.5t-135 -48.5h-147q-79 0 -135 48.5t-56 117.5v455q0 69 56.5 117t134.5 48h147q78 0 134.5 -48t56.5 -117zM1327 215v356q0 26 -18 44t-43 18h-70q-26 0 -43.5 -18t-17.5 -44v-356q0 -26 17.5 -43.5
t43.5 -17.5h70q25 0 43 17.5t18 43.5zM422 813v356q0 25 -18.5 43.5t-43.5 18.5h-69q-26 0 -44 -18.5t-18 -43.5v-356q0 -26 18 -43.5t44 -17.5h69q25 0 43.5 17.5t18.5 43.5z" />
    <glyph glyph-name="guilsinglleft" unicode="&#x2039;" horiz-adv-x="663" 
d="M602 205q0 -31 -20 -51l-21 -19q-20 -20 -49 -20t-51 22l-342 336q-37 37 -37 66v43q0 28 37 65l342 338q23 23 51 23t49 -21l21 -20q20 -20 20 -52q0 -20 -18 -41l-273 -313l273 -313q18 -21 18 -43z" />
    <glyph glyph-name="guilsinglright" unicode="&#x203a;" horiz-adv-x="663" 
d="M582 582v-43q0 -29 -37 -66l-342 -336q-22 -22 -51 -22q-30 0 -50 20l-18 19q-23 23 -23 51q0 19 21 43l270 313l-272 313q-19 22 -19 41q0 31 21 52l20 20q21 21 50 21q28 0 51 -23l342 -338q37 -37 37 -65z" />
    <glyph glyph-name="trademark" unicode="&#x2122;" horiz-adv-x="1464" 
d="M1311 1384v-720q0 -27 -20.5 -46.5t-49.5 -19.5h-29q-26 0 -46.5 20t-20.5 46v417l-109 -207h-41q-14 0 -33 12t-26 25l-88 168v-415q0 -27 -19.5 -46.5t-48.5 -19.5h-30q-29 0 -48.5 19.5t-19.5 46.5v563h-256v-561q0 -27 -20.5 -47.5t-49.5 -20.5h-30q-27 0 -46.5 19.5
t-19.5 48.5v561h-164q-30 0 -47.5 16t-17.5 45v35q0 28 19 44.5t46 16.5h690q40 0 58 -34l151 -279l154 279q18 34 61 34h101z" />
    <glyph glyph-name="minus" unicode="&#x2212;" horiz-adv-x="993" 
d="M944 582v-41q0 -32 -23.5 -53t-58.5 -21h-731q-35 0 -58.5 21t-23.5 53v41q0 32 23.5 52.5t58.5 20.5h731q35 0 58.5 -20.5t23.5 -52.5z" />
    <glyph glyph-name="nbspace" unicode="&#xe000;" horiz-adv-x="446" 
 />
    </font>
</defs>
</svg>
