<?xml version="1.0" standalone="no"?>
<!DOCTYPE svg PUBLIC "-//W3C//DTD SVG 1.1//EN" "http://www.w3.org/Graphics/SVG/1.1/DTD/svg11.dtd" >
<svg xmlns="http://www.w3.org/2000/svg" xmlns:xlink="http://www.w3.org/1999/xlink" version="1.1">
<metadata>
Created by FontForge 20170731 at Fri Apr 30 05:39:57 1999
 By Aleksey,,,
Copyright (C) 1999, Emigre, Inc. Designed by Sibylle Hagmann
</metadata>
<defs>
<font id="font__chollasans--400" horiz-adv-x="439" >
  <font-face 
    font-family="font__chollasans"
    font-weight="5"
    font-stretch="normal"
    units-per-em="1000"
    panose-1="0 0 0 0 0 0 0 0 0 0"
    ascent="800"
    descent="-200"
    x-height="474"
    cap-height="676"
    bbox="-96.4444 -250 948 879"
    underline-thickness="20"
    underline-position="-163"
    unicode-range="U+0020-F002"
  />
<missing-glyph horiz-adv-x="750" 
d="M46 0v750h658v-750h-658zM658 46v658h-566v-658h566z" />
    <glyph glyph-name=".notdef" horiz-adv-x="750" 
d="M46 0v750h658v-750h-658zM658 46v658h-566v-658h566z" />
    <glyph glyph-name=".null" horiz-adv-x="0" 
 />
    <glyph glyph-name="nonmarkingreturn" horiz-adv-x="205" 
 />
    <glyph glyph-name="space" unicode=" " horiz-adv-x="205" 
 />
    <glyph glyph-name="exclam" unicode="!" horiz-adv-x="248" 
d="M161 241q0 -12 -9 -21t-21 -9h-14q-13 0 -21.5 8.5t-8.5 21.5v405q0 13 8.5 21.5t21.5 8.5h14q13 0 21.5 -8.5t8.5 -21.5v-405zM161 30q0 -12 -9 -21t-21 -9h-14q-13 0 -21.5 8.5t-8.5 21.5v83q0 13 8.5 21.5t21.5 8.5h14q13 0 21.5 -8.5t8.5 -21.5v-83z" />
    <glyph glyph-name="quotedbl" unicode="&#x22;" horiz-adv-x="346" 
d="M301 648l-16 -183q-3 -27 -29 -27h-6q-26 0 -29 27l-16 183q0 9 8.5 18.5t22.5 9.5h34q11 0 18 -5q13 -9 13 -23zM141 648l-16 -183q-3 -27 -29 -27h-6q-26 0 -29 27l-16 183q0 9 8.5 18.5t22.5 9.5h34q11 0 18 -5q13 -9 13 -23z" />
    <glyph glyph-name="numbersign" unicode="#" horiz-adv-x="597" 
d="M572 446l-1 -11q0 -12 -9 -20t-21 -8h-98l-15 -138h97q25 0 25 -28l-1 -11q0 -12 -9 -20t-21 -8h-98l-18 -174q-4 -28 -31 -28h-17q-12 0 -19.5 8.5t-5.5 19.5l18 174h-127l-18 -174q-2 -12 -10.5 -20t-20.5 -8h-18q-11 0 -18.5 8.5t-5.5 19.5l18 174h-97q-26 0 -26 28
l1 11q0 12 9 20t21 8h99l15 138h-98q-26 0 -26 28l1 11q0 12 9 20t22 8h99l18 174q4 28 30 28h18q12 0 19.5 -8.5t5.5 -19.5l-18 -174h127l18 174q4 28 31 28h17q12 0 19.5 -8.5t5.5 -19.5l-18 -174h96q26 0 26 -28zM370 407h-127l-15 -138h127z" />
    <glyph glyph-name="dollar" unicode="$" horiz-adv-x="460" 
d="M401 114q0 -51 -31.5 -82.5t-83.5 -31.5h-25v-80q0 -22 -21 -22h-19q-22 0 -22 22v80h-111q-30 0 -30 28v11q0 12 8.5 20t21.5 8h111v237h-43q-39 0 -68 25t-29 67v174q0 37 28 68q34 38 85 38h27v77q0 22 22 22h18q22 0 22 -22v-77h80q13 0 21.5 -7.5t8.5 -20.5v-11
q0 -12 -9 -20t-21 -8h-80v-238h64q33 0 54.5 -23.5t21.5 -56.5v-177zM199 371v238h-8q-25 0 -41.5 -17.5t-16.5 -38.5v-142q0 -20 12 -30t41 -10h13zM327 127v136q0 15 -13 28t-30 13h-23v-237h8q25 0 41.5 18.5t16.5 41.5z" />
    <glyph glyph-name="percent" unicode="%" horiz-adv-x="700" 
d="M653 80q0 -33 -23.5 -56.5t-56.5 -23.5h-58q-33 0 -56.5 23.5t-23.5 56.5v211q0 33 23.5 56.5t56.5 23.5h58q33 0 56.5 -23.5t23.5 -56.5v-211zM562 651l-378 -650q-10 -16 -24 -7l-14 8q-16 10 -7 25l378 650q7 10 15 10q4 0 9 -3l14 -8q10 -7 10 -15q0 -5 -3 -10z
M265 385q0 -32 -23 -56t-56 -24h-58q-34 0 -57.5 23.5t-23.5 56.5v211q0 33 23.5 56.5t56.5 23.5h58q34 0 57 -23t23 -57v-211zM594 81v210q0 11 -7 18t-18 7h-50q-11 0 -18 -7t-7 -18v-210q0 -10 7 -18t18 -8h50q11 0 18 7t7 19zM206 386v210q0 11 -7 18t-18 7h-50
q-11 0 -18 -7t-7 -18v-210q0 -10 7 -18t18 -8h50q11 0 18 7t7 19z" />
    <glyph glyph-name="ampersand" unicode="&#x26;" horiz-adv-x="478" 
d="M480 230q0 -12 -9 -20t-21 -8h-36v-94q0 -44 -34 -76t-79 -32h-127q-45 0 -79 32t-34 78v181q0 35 15 56q12 17 40 29q-25 13 -35 31t-10 52v112q0 41 34 73t78 32h130q13 0 21.5 -7.5t8.5 -20.5v-11q0 -12 -9 -20t-21 -8h-112q-22 0 -39 -15t-17 -40v-72q0 -29 14 -50
t41 -21h56q30 0 30 -28v-11q0 -12 -8.5 -20t-21.5 -8h-58q-32 0 -47.5 -19.5t-15.5 -49.5v-142q0 -66 59 -66h85q30 0 45.5 20.5t15.5 45.5v69h-35q-30 0 -30 28v11q0 12 8.5 20t21.5 8h145q13 0 21.5 -7.5t8.5 -20.5v-11z" />
    <glyph glyph-name="quotesingle" unicode="'" horiz-adv-x="186" 
d="M141 648l-16 -183q0 -27 -27 -27h-8q-26 0 -29 27l-16 183q0 9 8.5 18.5t21.5 9.5h35q11 0 18 -5q13 -9 13 -23z" />
    <glyph glyph-name="parenleft" unicode="(" horiz-adv-x="271" 
d="M216 -191q0 -11 -8 -17l-9 -7q-7 -5 -12 -5q-7 0 -15 8l-55 53q-27 27 -27 64v719q0 36 27 63l55 53q8 8 18 8q5 0 8 -3l10 -8q8 -6 8 -18l-3 -11l-49 -74v-739l48 -75q4 -8 4 -11z" />
    <glyph glyph-name="parenright" unicode=")" horiz-adv-x="271" 
d="M181 -95q0 -38 -27 -64l-55 -53q-8 -8 -17 -8q-6 0 -10 4l-9 8q-7 6 -7 17l3 11l48 75v739l-48 74q-4 6 -4 11q0 9 8 17l10 8q5 4 11 4t15 -7l55 -54q27 -26 27 -63v-719z" />
    <glyph glyph-name="asterisk" unicode="*" horiz-adv-x="426" 
d="M401 483q0 -8 -5 -12t-12 -4l-125 3l91 -84q6 -5 6 -12t-6 -12l-11 -9q-7 -5 -12 -5t-10 5l-84 91l4 -125q0 -17 -16 -17h-16q-17 0 -17 17l5 125l-84 -91q-5 -5 -11 -5q-5 0 -12 5l-11 9q-6 5 -6 12t6 12l92 84l-124 -3q-18 0 -18 16v15q0 7 5 12t12 5l125 -4l-92 84
q-6 5 -6 12t6 12l11 10q7 5 13 5q5 0 10 -5l84 -92l-5 125q0 7 5 12t12 5h16q16 0 16 -17l-4 -125l84 92q5 5 10 5t12 -5l11 -10q6 -5 6 -12t-6 -12l-91 -84l124 4q18 0 18 -17v-15z" />
    <glyph glyph-name="plus" unicode="+" horiz-adv-x="500" 
d="M455 267q0 -12 -8 -19t-20 -7h-141v-143q0 -12 -8 -20t-20 -8h-17q-12 0 -20.5 8.5t-8.5 19.5v143h-139q-12 0 -20 7t-8 19v15q0 12 8 19t20 7h139v143q0 12 8 20t21 8h17q12 0 20 -8t8 -20v-143h141q12 0 20 -7t8 -19v-15z" />
    <glyph glyph-name="comma" unicode="," horiz-adv-x="230" 
d="M161 23q0 -35 -17 -64l-42 -74q-7 -12 -19 -7l-5 2q-12 5 -7 18l30 64q6 12 6 20q0 12 -9 15q-17 9 -19 10q-10 8 -10 21v70q0 13 9 21t21 8h32q12 0 21 -8t9 -21v-75z" />
    <glyph glyph-name="hyphen" unicode="-" horiz-adv-x="342" 
d="M308 266q0 -11 -7 -18t-18 -7h-223q-10 0 -18 7t-8 18v17q0 11 7 18t19 7h223q11 0 18 -7t7 -18v-17z" />
    <glyph glyph-name="period" unicode="." horiz-adv-x="230" 
d="M161 25q0 -9 -10.5 -17t-22.5 -8h-28q-13 0 -22 7t-9 20v71q0 11 9 20t21 9h32q12 0 21 -8t9 -21v-73z" />
    <glyph glyph-name="slash" unicode="/" horiz-adv-x="271" 
d="M290 652l-246 -672q-9 -24 -34 -16l-12 4q-18 7 -18 25q0 3 2 9l246 672q7 18 25 18q3 0 9 -2l12 -4q18 -7 18 -25q0 -3 -2 -9z" />
    <glyph glyph-name="zero" unicode="0" horiz-adv-x="441" 
d="M380 110q0 -46 -33 -78t-79 -32h-93q-46 0 -80 32t-34 78v456q0 46 33 78t81 32h93q46 0 79 -32t33 -78v-456zM306 133v410q0 28 -16 47t-44 19h-53q-27 0 -42.5 -18.5t-15.5 -47.5v-410q0 -29 15.5 -47.5t42.5 -18.5h53q27 0 43.5 18.5t16.5 47.5z" />
    <glyph glyph-name="one" unicode="1" horiz-adv-x="441" 
d="M275 30q0 -12 -9 -21t-21 -9h-14q-13 0 -21.5 8.5t-8.5 21.5v522l-66 -43l-16 -4q-9 0 -16 6t-7 14q0 10 8 18l111 116q8 8 12 11q8 6 18 6h5q25 0 25 -29v-617z" />
    <glyph glyph-name="two" unicode="2" horiz-adv-x="441" 
d="M374 28q0 -12 -9 -20t-21 -8h-266v214q0 39 17 66.5t53 53.5l99 72q39 29 39 70v68q0 26 -14 44q-17 21 -46 21h-116q-30 0 -30 28v11q0 12 8.5 20t21.5 8h133q50 0 83.5 -30t33.5 -84v-106q0 -28 -15.5 -54t-40.5 -44l-95 -70q-31 -22 -41 -36q-16 -21 -16 -52v-133h192
q13 0 21.5 -7.5t8.5 -20.5v-11z" />
    <glyph glyph-name="three" unicode="3" horiz-adv-x="441" 
d="M342 110q0 -46 -32 -78t-79 -32h-159q-30 0 -30 28v11q0 12 8.5 20t21.5 8h132q28 0 46 17t18 46v105q0 30 -14 48q-17 21 -49 21h-64q-30 0 -30 28v11q0 12 8.5 20t21.5 8h62q27 0 41 20.5t14 50.5v104q0 63 -63 63h-100q-30 0 -30 28v11q0 12 8.5 20t21.5 8h126
q47 0 79 -31t32 -78v-148q0 -32 -10 -51t-35 -32q26 -11 40.5 -30.5t14.5 -54.5v-141z" />
    <glyph glyph-name="four" unicode="4" horiz-adv-x="441" 
d="M410 230q0 -12 -9 -20t-21 -8h-66v-172q0 -12 -9 -21t-21 -9h-14q-13 0 -21.5 8.5t-8.5 21.5v172h-166q-21 0 -31.5 12.5t-10.5 31.5q0 7 3 14t4 11l162 380q11 25 35 25h42q14 0 25 -9t11 -28v-370h66q13 0 21.5 -7.5t8.5 -20.5v-11zM248 602q-5 -21 -15.5 -49
t-38.5 -94l-81 -190h127v251q0 28 5 65q0 6 3 17z" />
    <glyph glyph-name="five" unicode="5" horiz-adv-x="441" 
d="M370 115q0 -48 -31.5 -81.5t-84.5 -33.5h-153q-30 0 -30 28v11q0 12 8.5 20t21.5 8h135q26 0 43 18t17 41v137q0 16 -11.5 28.5t-31.5 12.5h-162v331q0 21 11 31t31 10h186q13 0 21.5 -7.5t8.5 -20.5v-11q0 -12 -9 -20t-21 -8h-154v-238h125q33 0 56.5 -23.5t23.5 -57.5
v-175z" />
    <glyph glyph-name="six" unicode="6" horiz-adv-x="441" 
d="M385 108q0 -45 -32.5 -76.5t-79.5 -31.5h-95q-47 0 -79.5 31.5t-32.5 78.5v452q0 52 33 83t75 31h142q13 0 21.5 -7.5t8.5 -20.5v-11q0 -12 -9 -20t-21 -8h-108q-34 0 -51 -18t-17 -49v-203q21 35 68 35h66q47 0 79 -32t32 -79v-155zM311 132v104q0 33 -15 52t-43 19h-54
q-26 0 -42.5 -17t-16.5 -48v-109q0 -30 16 -48t44 -18h52q26 0 42.5 18.5t16.5 46.5z" />
    <glyph glyph-name="seven" unicode="7" horiz-adv-x="441" 
d="M372 642q0 -4 -2.5 -14t-4.5 -17l-187 -598q-4 -16 -26 -16q-10 1 -12 2l-11 4q-18 6 -18 23l3 15l178 568h-215q-30 0 -30 28v11q0 12 8.5 20t21.5 8h264q16 0 23.5 -10t7.5 -24z" />
    <glyph glyph-name="eight" unicode="8" horiz-adv-x="441" 
d="M380 109q0 -46 -32.5 -77.5t-78.5 -31.5h-97q-46 0 -78.5 31.5t-32.5 77.5v139q0 36 11 56t41 34q-25 14 -34.5 33t-9.5 49v149q0 45 32 76t78 31h83q47 0 78.5 -30.5t31.5 -76.5v-149q0 -30 -9 -48.5t-35 -33.5q52 -25 52 -90v-139zM298 426v129q0 22 -16 38t-39 16h-46
q-23 0 -38.5 -15.5t-15.5 -38.5v-129q0 -23 15 -39t39 -16h46q23 0 39 16t16 39zM306 122v127q0 23 -16 39t-39 16h-61q-23 0 -39 -15t-16 -39v-128q0 -23 16 -39t39 -16h61q23 0 39 16t16 39z" />
    <glyph glyph-name="nine" unicode="9" horiz-adv-x="441" 
d="M375 117q0 -54 -32.5 -85.5t-80.5 -31.5h-149q-30 0 -30 28v11q0 12 8.5 20t21.5 8h119q36 0 52.5 18.5t16.5 56.5v195q-12 -14 -29.5 -23.5t-35.5 -9.5h-69q-46 0 -78.5 34.5t-32.5 81.5v148q0 46 31 77t78 31h101q47 0 78 -31t31 -77v-451zM301 426v129q0 22 -16 38
t-39 16h-60q-23 0 -39.5 -15.5t-16.5 -38.5v-129q0 -23 16 -39t40 -16h60q23 0 39 16t16 39z" />
    <glyph glyph-name="colon" unicode=":" horiz-adv-x="230" 
d="M161 372q0 -9 -10.5 -17t-22.5 -8h-28q-13 0 -22 7t-9 20v71q0 11 9 20t21 9h32q12 0 21 -8t9 -21v-73zM161 25q0 -9 -10.5 -17t-22.5 -8h-28q-13 0 -22 7t-9 20v71q0 11 9 20t21 9h32q12 0 21 -8t9 -21v-73z" />
    <glyph glyph-name="semicolon" unicode=";" horiz-adv-x="230" 
d="M161 372q0 -9 -10.5 -17t-22.5 -8h-28q-13 0 -22 7t-9 20v71q0 11 9 20t21 9h32q12 0 21 -8t9 -21v-73zM161 23q0 -35 -17 -64l-42 -74q-5 -8 -14 -8l-5 1l-5 2q-8 3 -8 12l1 6l30 64q6 12 6 20q0 12 -9 15q-17 9 -19 10q-10 8 -10 21v70q0 13 9 21t21 8h32q12 0 21 -8
t9 -21v-75z" />
    <glyph glyph-name="less" unicode="&#x3c;" horiz-adv-x="497" 
d="M462 119l-3 -8l-10 -21q-6 -12 -20 -12q-3 0 -9 2l-367 166q-15 8 -15 18v15q0 13 15 21l367 166q3 2 11 2q14 0 19 -12l9 -21l3 -11q0 -12 -12 -17l-307 -133l307 -135q12 -6 12 -20z" />
    <glyph glyph-name="equal" unicode="=" horiz-adv-x="500" 
d="M455 358q0 -11 -8 -20t-20 -9h-354q-11 0 -19.5 8.5t-8.5 20.5v11q0 11 8 19t20 8h354q11 0 19.5 -7.5t8.5 -19.5v-11zM455 180q0 -12 -8 -20t-20 -8h-354q-12 0 -20 8t-8 20v11q0 12 8 20t20 8h354q12 0 20 -8t8 -20v-11z" />
    <glyph glyph-name="greater" unicode="&#x3e;" horiz-adv-x="497" 
d="M459 264q0 -10 -15 -18l-367 -166q-6 -2 -10 -2q-13 0 -19 12l-10 21l-3 8q0 14 12 20l307 135l-307 133q-12 5 -12 17l3 11l9 21q5 12 19 12q8 0 11 -2l367 -166q15 -8 15 -21v-15z" />
    <glyph glyph-name="question" unicode="?" horiz-adv-x="354" 
d="M306 416q0 -45 -33.5 -78.5t-78.5 -33.5h-37v-63q0 -12 -9 -21t-21 -9h-14q-13 0 -21.5 8.5t-8.5 21.5v97q0 33 34 33h61q28 0 43 23q11 17 11 42v108q0 28 -15.5 46.5t-43.5 18.5h-103q-30 0 -30 28v11q0 12 8.5 20t21.5 8h125q46 0 78.5 -32.5t32.5 -79.5v-148zM157 30
q0 -12 -9 -21t-21 -9h-14q-13 0 -21.5 8.5t-8.5 21.5v83q0 13 8.5 21.5t21.5 8.5h14q13 0 21.5 -8.5t8.5 -21.5v-83z" />
    <glyph glyph-name="at" unicode="@" horiz-adv-x="670" 
d="M609 196q0 -31 -19.5 -52.5t-52.5 -21.5h-67q-20 0 -36 10q-8 5 -15 14.5t-11 11.5t-11 2q-29 -16 -52.5 -28.5t-51.5 -12.5h-12q-42 0 -71.5 30.5t-29.5 73.5v71q0 44 29.5 76.5t71.5 32.5h12q32 0 62 -21t42 -21q14 0 14 22v45q0 68 -66 68h-110q-10 0 -16.5 7.5
t-6.5 16.5v14q0 7 6.5 15.5t16.5 8.5h140q41 0 71.5 -30.5t30.5 -71.5v-251q0 -25 24 -25h30q24 0 24 25v372q0 20 -13.5 34.5t-35.5 14.5h-342q-21 0 -35 -14t-14 -35v-478q0 -21 14 -35t35 -14h302q20 0 20 -20v-10q0 -20 -20 -20h-322q-35 0 -59 24t-24 59v510
q0 35 24 59t59 24h382q35 0 59 -24t24 -59v-397zM411 242v41q0 21 -16 37t-37 16h-59q-21 0 -37 -16t-16 -37v-41q0 -22 16 -39t37 -17h59q21 0 37 17t16 39z" />
    <glyph glyph-name="A" unicode="A" horiz-adv-x="471" 
d="M436 25q0 -9 -5.5 -14.5t-15.5 -8.5l-17 -4q-11 -3 -21 3t-12 17l-41 183h-177l-41 -183q-5 -27 -33 -20l-17 4q-9 3 -15 8.5t-6 14.5l1 9l140 610q7 32 39 32h41q32 0 39 -32l140 -610zM308 268l-47 207q-11 47 -20 105q-1 12 -4 31q-6 -32 -9 -50q-8 -44 -18 -86
l-47 -207h145z" />
    <glyph glyph-name="B" unicode="B" horiz-adv-x="472" 
d="M407 106q0 -42 -31 -74t-83 -32h-217v652q0 8 6 16t17 8h14q14 0 21 -11l13 -23q6 -10 15 -10q1 0 54 31q27 16 53 16h11q46 0 76 -33t30 -80v-146q0 -27 -14 -47q-17 -24 -47 -31q33 -2 57.5 -24.5t24.5 -56.5v-155zM312 428v126q0 23 -15 39t-39 16h-52
q-23 0 -39.5 -15.5t-16.5 -39.5v-183h102q24 0 42 17t18 40zM333 132v112q0 60 -59 60h-124v-237h119q27 0 45.5 18.5t18.5 46.5z" />
    <glyph glyph-name="C" unicode="C" horiz-adv-x="408" 
d="M383 28q0 -12 -9 -20t-21 -8h-164q-47 0 -80 32t-33 79v454q0 46 33.5 78.5t79.5 32.5h131q13 0 21.5 -7.5t8.5 -20.5v-11q0 -12 -9 -20t-21 -8h-115q-23 0 -39 -16t-16 -39v-423q0 -28 14.5 -46t41.5 -18h147q13 0 21.5 -7.5t8.5 -20.5v-11z" />
    <glyph glyph-name="D" unicode="D" horiz-adv-x="483" 
d="M407 105q0 -42 -31.5 -73.5t-82.5 -31.5h-217v652q0 8 6 16t17 8h14q14 0 21 -11l13 -23q6 -10 15 -10q32 18 57 31q30 16 59 16h11q51 0 84.5 -28.5t33.5 -84.5v-461zM333 132v422q0 22 -14.5 38.5t-39.5 16.5h-74q-24 0 -39.5 -16.5t-15.5 -38.5v-487h119
q27 0 45.5 18.5t18.5 46.5z" />
    <glyph glyph-name="E" unicode="E" horiz-adv-x="410" 
d="M380 28q0 -12 -8.5 -20t-21.5 -8h-246q-28 0 -28 28v620q0 12 8 20t21 8h231q30 0 30 -28v-11q0 -12 -8.5 -20t-21.5 -8h-186v-238h164q13 0 21.5 -7.5t8.5 -20.5v-11q0 -12 -9 -20t-21 -8h-164v-237h200q30 0 30 -28v-11z" />
    <glyph glyph-name="F" unicode="F" horiz-adv-x="390" 
d="M366 637q0 -12 -8.5 -20t-21.5 -8h-186v-238h163q30 0 30 -28v-11q0 -12 -8.5 -20t-21.5 -8h-163v-276q0 -12 -8 -20t-20 -8h-18q-28 0 -28 28v621q0 11 8 19t20 8h232q30 0 30 -28v-11z" />
    <glyph glyph-name="G" unicode="G" horiz-adv-x="495" 
d="M425 111q0 -45 -33 -78t-79 -33h-124q-49 0 -81 33t-32 78v454q0 47 33 79t80 32h190q13 0 21.5 -7.5t8.5 -20.5v-11q0 -12 -9 -20t-21 -8h-173q-23 0 -39.5 -15.5t-16.5 -39.5v-432q0 -23 15 -39t40 -16h92q23 0 38.5 16.5t15.5 38.5v182h-86q-30 0 -30 28v11
q0 12 8.5 20t21.5 8h160v-260z" />
    <glyph glyph-name="H" unicode="H" horiz-adv-x="501" 
d="M425 30q0 -12 -9 -21t-21 -9h-14q-13 0 -21.5 8.5t-8.5 21.5v274h-201v-274q0 -12 -9 -21t-21 -9h-14q-13 0 -21.5 8.5t-8.5 21.5v616q0 13 8.5 21.5t21.5 8.5h14q13 0 21.5 -8.5t8.5 -21.5v-275h201v275q0 13 8.5 21.5t21.5 8.5h14q13 0 21.5 -8.5t8.5 -21.5v-616z" />
    <glyph glyph-name="I" unicode="I" horiz-adv-x="268" 
d="M171 30q0 -12 -9 -21t-21 -9h-14q-13 0 -21.5 8.5t-8.5 21.5v616q0 13 8.5 21.5t21.5 8.5h14q13 0 21.5 -8.5t8.5 -21.5v-616z" />
    <glyph glyph-name="J" unicode="J" horiz-adv-x="268" 
d="M171 18q0 -23 -6 -40t-24 -33l-94 -82q-10 -8 -18 -8q-7 0 -13 6l-9 9q-5 5 -5 13t9 19l67 83q7 9 13 22.5t6 24.5v617q0 27 28 27h17q12 0 20.5 -7.5t8.5 -19.5v-631z" />
    <glyph glyph-name="K" unicode="K" horiz-adv-x="455" 
d="M448 37q0 -13 -9 -21l-15 -13q-8 -6 -16 -6q-15 0 -25 12l-233 286v-265q0 -12 -9 -21t-21 -9h-14q-13 0 -21.5 8.5t-8.5 21.5v616q0 13 8.5 21.5t21.5 8.5h14q13 0 21.5 -8.5t8.5 -21.5v-263l213 285q9 12 24 12q8 0 17 -7l11 -9q12 -11 12 -23q0 -9 -6 -17l-215 -283
l236 -286q6 -8 6 -18z" />
    <glyph glyph-name="L" unicode="L" horiz-adv-x="390" 
d="M379 28q0 -12 -9 -20t-21 -8h-273v646q0 13 8.5 21.5t21.5 8.5h14q13 0 21.5 -8.5t8.5 -21.5v-579h199q13 0 21.5 -7.5t8.5 -20.5v-11z" />
    <glyph glyph-name="M" unicode="M" horiz-adv-x="548" 
d="M472 30q0 -13 -8.5 -21.5t-21.5 -8.5h-14q-13 0 -21.5 8.5t-8.5 21.5v502l-101 -189q-8 -14 -20 -14h-6q-6 0 -11 4q-6 4 -9 10l-101 189v-502q0 -12 -9 -21t-21 -9h-14q-13 0 -21.5 8.5t-8.5 21.5v618q0 28 28 28h15q12 0 21.5 -7t15.5 -18l118 -220l118 220
q5 8 15 16.5t22 8.5h15q28 0 28 -28v-618z" />
    <glyph glyph-name="N" unicode="N" horiz-adv-x="513" 
d="M437 28q0 -12 -8 -20t-20 -8h-18q-13 0 -23 12q-3 4 -8 13l-210 462v-457q0 -12 -9 -21t-21 -9h-14q-13 0 -21.5 8.5t-8.5 21.5v619q0 11 8 19t20 8h18q21 0 33 -25l208 -458v453q0 13 8.5 21.5t21.5 8.5h14q13 0 21.5 -8.5t8.5 -21.5v-618z" />
    <glyph glyph-name="O" unicode="O" horiz-adv-x="513" 
d="M437 110q0 -46 -33 -78t-80 -32h-135q-47 0 -80 32t-33 78v456q0 46 33 78t80 32h135q47 0 80 -32t33 -78v-456zM363 132v411q0 28 -16 47t-44 19h-96q-26 0 -41.5 -18.5t-15.5 -47.5v-411q0 -29 15 -47t42 -18h96q27 0 43.5 18.5t16.5 46.5z" />
    <glyph glyph-name="P" unicode="P" horiz-adv-x="428" 
d="M393 420q0 -46 -34 -81t-82 -35h-127v-274q0 -12 -9 -21t-21 -9h-14q-13 0 -21.5 8.5t-8.5 21.5v622q0 8 6 16t17 8h14q14 0 21 -11l13 -23q6 -10 15 -10q26 15 52.5 31t52.5 16h15q47 0 79 -32t32 -81v-146zM319 427v127q0 22 -15.5 38.5t-39.5 16.5h-59
q-22 0 -38.5 -16.5t-16.5 -38.5v-183h109q26 0 43 18t17 38z" />
    <glyph glyph-name="Q" unicode="Q" horiz-adv-x="520" 
d="M502 -44q0 -7 -5 -12l-8 -8q-1 -1 -6 -2q-1 0 -6 -1q-11 0 -24 10l-83 67q-3 -2 -17 -6t-28 -4h-136q-46 0 -79.5 32.5t-33.5 77.5v456q0 46 33 78t78 32h139q45 0 78 -32t33 -78v-456q0 -17 -3.5 -30t-10.5 -23l70 -80q9 -11 9 -21zM363 133v410q0 28 -16 47t-43 19h-97
q-26 0 -41.5 -18.5t-15.5 -47.5v-410q0 -28 15 -47t42 -19h99q26 0 41.5 18.5t15.5 47.5z" />
    <glyph glyph-name="R" unicode="R" horiz-adv-x="470" 
d="M438 32q0 -21 -17 -27l-14 -5q-4 -2 -12 -2q-19 0 -27 17l-121 289h-97v-274q0 -12 -9 -21t-21 -9h-14q-13 0 -21.5 8.5t-8.5 21.5v622q0 8 6 16t17 8h14q14 0 21 -11l13 -23q6 -10 15 -10q29 18 52 31q27 16 55 16h13q47 0 79 -32t32 -80v-147q0 -38 -21 -65.5
t-51 -40.5l114 -269zM319 429v126q0 22 -15 38t-40 16h-58q-24 0 -40 -16t-16 -38v-184h109q26 0 43 18t17 40z" />
    <glyph glyph-name="S" unicode="S" horiz-adv-x="433" 
d="M374 114q0 -50 -32 -82t-84 -32h-171q-30 0 -30 28v11q0 12 8.5 20t21.5 8h154q27 0 43 19t16 41v136q0 16 -12.5 28.5t-30.5 12.5h-101q-39 0 -68 25t-29 67v174q0 37 28 68q34 38 85 38h148q13 0 21.5 -7.5t8.5 -20.5v-11q0 -12 -9 -20t-21 -8h-129q-25 0 -41.5 -17.5
t-16.5 -38.5v-142q0 -19 12 -29.5t41 -10.5h112q33 0 54.5 -23.5t21.5 -56.5v-177z" />
    <glyph glyph-name="T" unicode="T" horiz-adv-x="400" 
d="M396 637q0 -12 -9 -20t-21 -8h-129v-579q0 -12 -9 -21t-21 -9h-14q-13 0 -21.5 8.5t-8.5 21.5v579h-129q-30 0 -30 28v11q0 12 8.5 20t21.5 8h332q13 0 21.5 -7.5t8.5 -20.5v-11z" />
    <glyph glyph-name="U" unicode="U" horiz-adv-x="513" 
d="M437 27q0 -9 -5.5 -18t-17.5 -9h-14q-15 0 -23 14l-10 18q-5 9 -15 9q-30 -18 -58.5 -31t-64.5 -13h-18q-67 0 -103 35q-32 31 -32 79v535q0 13 8.5 21.5t21.5 8.5h14q13 0 21.5 -8.5t8.5 -21.5v-513q0 -29 17.5 -47.5t48.5 -18.5h81q30 0 48 19t18 47v513q0 13 8.5 21.5
t21.5 8.5h14q13 0 21.5 -8.5t8.5 -21.5v-619z" />
    <glyph glyph-name="V" unicode="V" horiz-adv-x="467" 
d="M437 646l-1 -7l-137 -588q-6 -25 -22 -38t-34 -13h-19q-18 0 -34 13t-22 38l-137 588l-1 7q0 11 6.5 17.5t18.5 10.5l13 4q30 9 37 -22l102 -454q2 -10 19 -103q2 -12 6 -31q7 32 10 50q7 36 18 84l102 454q3 13 13.5 19.5t23.5 2.5l13 -4q11 -3 18 -10t7 -18z" />
    <glyph glyph-name="W" unicode="W" horiz-adv-x="708" 
d="M657 640l-93 -595q-3 -20 -15.5 -32.5t-26.5 -12.5h-28q-12 0 -24.5 13.5t-18.5 32.5l-97 304l-97 -304q-6 -20 -18 -33t-25 -13h-28q-12 0 -25.5 13t-16.5 32l-93 595v8q0 23 23 27l16 3q10 2 21 -4.5t12 -16.5l73 -503q3 -18 6 -58q0 -11 2 -28q3 14 5 22q6 23 11 41
l95 313q4 13 12.5 21t20.5 8h12q12 0 20.5 -8t12.5 -21l95 -313q6 -19 11 -49q1 -5 2 -14q2 17 4 36t7 50l73 503q1 8 7 13q12 10 26 8l16 -3q10 -1 16.5 -9t6.5 -18v-8z" />
    <glyph glyph-name="X" unicode="X" horiz-adv-x="432" 
d="M407 33q0 -17 -16 -25l-16 -8q-6 -3 -12 -3q-17 0 -25 15l-122 252l-123 -251q-8 -16 -25 -16q-6 0 -12 3l-15 8q-16 8 -16 25l3 12l148 302l-140 285l-2 10q0 18 15 26l16 8q6 3 13 3q16 0 24 -15l114 -234l114 234q8 15 24 15q7 0 13 -3l16 -7q15 -7 15 -27l-2 -10
l-140 -285l148 -302z" />
    <glyph glyph-name="Y" unicode="Y" horiz-adv-x="418" 
d="M390 642l-3 -12l-141 -289v-311q0 -13 -8.5 -21.5t-21.5 -8.5h-14q-13 0 -21.5 8.5t-8.5 21.5v311l-141 289l-3 12q0 19 18 28l12 6q8 3 14 3q16 0 23 -15l114 -232l114 232q7 15 23 15q6 0 14 -3l12 -6q18 -9 18 -28z" />
    <glyph glyph-name="Z" unicode="Z" horiz-adv-x="412" 
d="M381 28q0 -12 -9 -20t-21 -8h-279q-16 0 -24.5 10.5t-8.5 26.5q0 9 2 16q1 4 6 15l228 541h-203q-30 0 -30 28v11q0 12 8.5 20t21.5 8h259q15 0 23.5 -9.5t8.5 -22.5t-8 -32l-229 -545h225q13 0 21.5 -7.5t8.5 -20.5v-11z" />
    <glyph glyph-name="bracketleft" unicode="[" horiz-adv-x="280" 
d="M276 -182q0 -12 -9 -20t-21 -8h-161v950h154q13 0 21.5 -7.5t8.5 -20.5v-11q0 -12 -9 -20t-21 -8h-80v-816h87q13 0 21.5 -7.5t8.5 -20.5v-11z" />
    <glyph glyph-name="backslash" unicode="\" horiz-adv-x="271" 
d="M290 2q4 -10 -1 -20t-15 -14l-12 -4q-25 -8 -34 16l-246 672q-4 10 1 20t15 14l12 4q10 4 20 -1t14 -15z" />
    <glyph glyph-name="bracketright" unicode="]" horiz-adv-x="280" 
d="M4 -182v11q0 12 9 20t21 8h87v816h-80q-13 0 -21.5 7.5t-8.5 20.5v11q0 12 9 20t21 8h154v-950h-161q-13 0 -21.5 7.5t-8.5 20.5z" />
    <glyph glyph-name="asciicircum" unicode="^" horiz-adv-x="460" 
d="M433 336q0 -14 -14 -22l-20 -10q-3 -2 -10 -2q-15 0 -24 14l-135 251l-135 -251q-8 -15 -23 -15q-5 0 -10 3l-20 10q-14 8 -14 22q0 8 2 12l171 314q9 14 22 14h19q13 0 20 -14l168 -314z" />
    <glyph glyph-name="underscore" unicode="_" horiz-adv-x="526" 
d="M526 -78q0 -18 -18 -18h-490q-18 0 -18 18v15q0 7 5 13t13 6h490q18 0 18 -18v-16z" />
    <glyph glyph-name="grave" unicode="`" horiz-adv-x="250" 
d="M214 556q-1 -5 -2 -6l-7 -10q-4 -7 -16 -7q-4 0 -8 2l-132 75q-13 7 -13 23q0 11 5 19l10 14q10 13 26 13q10 0 16 -6l114 -101q7 -6 7 -16z" />
    <glyph glyph-name="a" unicode="a" horiz-adv-x="421" 
d="M360 25q0 -10 -6.5 -17.5t-16.5 -7.5h-15q-14 0 -22 14l-9 17q-7 10 -16 10q-7 0 -39 -22t-67 -22h-15q-46 0 -78.5 33.5t-32.5 79.5v77q0 50 32 82t79 32h15q28 0 53 -15.5t52 -31.5q12 0 12 17v72q0 64 -66 64h-114q-30 0 -30 28v11q0 12 8.5 20t21.5 8h141
q45 0 79 -32t34 -77v-340zM286 130v38q0 27 -18 45t-45 18h-43q-27 0 -45 -18t-18 -45v-38q0 -27 18 -45t45 -18h43q27 0 45 18t18 45z" />
    <glyph glyph-name="b" unicode="b" 
d="M378 110q0 -46 -32.5 -79.5t-78.5 -33.5h-15q-34 0 -66 22t-40 22q-9 0 -16 -10l-9 -17q-8 -14 -22 -14h-15q-10 0 -16.5 7.5t-6.5 17.5v621q0 13 8.5 21.5t21.5 8.5h14q13 0 21.5 -8.5t8.5 -21.5v-199q0 -17 12 -17q2 0 53 31q26 16 52 16h15q46 0 78.5 -32.5
t32.5 -81.5v-253zM304 130v214q0 27 -18 45t-45 18h-43q-27 0 -45 -18t-18 -45v-214q0 -27 18 -45t45 -18h43q27 0 45 18t18 45z" />
    <glyph glyph-name="c" unicode="c" horiz-adv-x="358" 
d="M338 28q0 -12 -8.5 -20t-21.5 -8h-137q-46 0 -78 34t-32 80v249q0 46 33.5 78.5t80.5 32.5h122q30 0 30 -28v-11q0 -12 -8.5 -20t-21.5 -8h-96q-35 0 -50.5 -17.5t-15.5 -47.5v-213q0 -33 18.5 -47.5t48.5 -14.5h106q30 0 30 -28v-11z" />
    <glyph glyph-name="d" unicode="d" 
d="M378 25q0 -10 -6.5 -17.5t-16.5 -7.5h-15q-14 0 -22 14l-9 17q-7 10 -16 10q-7 0 -39 -22t-67 -22h-15q-46 0 -78.5 33.5t-32.5 79.5v253q0 50 32 82t79 32h15q28 0 53 -15.5t52 -31.5q12 0 12 17v199q0 12 9 21t21 9h14q13 0 21.5 -8.5t8.5 -21.5v-621zM304 130v214
q0 27 -18 45t-45 18h-43q-27 0 -45 -18t-18 -45v-214q0 -27 18 -45t45 -18h43q27 0 45 18t18 45z" />
    <glyph glyph-name="e" unicode="e" horiz-adv-x="421" 
d="M378 267q0 -31 -16 -45.5t-42 -14.5h-185v-79q0 -28 16.5 -44.5t48.5 -16.5h103q30 0 30 -28v-11q0 -12 -8.5 -20t-21.5 -8h-133q-44 0 -76.5 33.5t-32.5 80.5v250q0 46 34 78t81 32h87q46 0 80.5 -32.5t34.5 -77.5v-97zM304 269v84q0 23 -15.5 38.5t-38.5 15.5h-61
q-22 0 -38 -15t-16 -39v-84h169z" />
    <glyph glyph-name="f" unicode="f" horiz-adv-x="291" 
d="M326 637q0 -12 -8.5 -20t-21.5 -8h-101q-25 0 -37.5 -15.5t-12.5 -40.5v-79h99q30 0 30 -28v-11q0 -12 -8.5 -20t-21.5 -8h-99v-381q0 -26 -28 -26h-18q-28 0 -28 26v542q0 48 29 78t75 30h121q30 0 30 -28v-11z" />
    <glyph glyph-name="g" unicode="g" 
d="M378 -108q0 -46 -32 -79t-79 -33h-122q-30 0 -30 28v11q0 12 8.5 20t21.5 8h93q34 0 50 17t16 46v112q0 19 -12 19q-6 0 -38 -22t-67 -22h-15q-46 0 -78.5 33.5t-32.5 79.5v253q0 50 32 82t79 32h15q28 0 53 -15.5t52 -31.5q9 0 15 10l13 23q7 11 21 11h14q23 0 23 -24
v-558zM304 129v215q0 27 -18 45t-45 18h-44q-26 0 -44 -18t-18 -45v-215q0 -26 18 -44t44 -18h44q26 0 44.5 17.5t18.5 44.5z" />
    <glyph glyph-name="h" unicode="h" 
d="M378 30q0 -12 -9 -21t-21 -9h-14q-13 0 -21.5 8.5t-8.5 21.5v314q0 27 -18 45t-45 18h-43q-27 0 -45 -18t-18 -45v-314q0 -12 -9 -21t-21 -9h-14q-13 0 -21.5 8.5t-8.5 21.5v616q0 13 8.5 21.5t21.5 8.5h14q13 0 21.5 -8.5t8.5 -21.5v-199q0 -17 12 -17q2 0 53 31
q26 16 52 16h15q46 0 78.5 -32.5t32.5 -81.5v-333z" />
    <glyph glyph-name="i" unicode="i" horiz-adv-x="248" 
d="M161 591q0 -12 -9 -21t-21 -9h-14q-13 0 -21.5 8.5t-8.5 21.5v55q0 13 8.5 21.5t21.5 8.5h14q13 0 21.5 -8.5t8.5 -21.5v-55zM161 30q0 -12 -9 -21t-21 -9h-14q-13 0 -21.5 8.5t-8.5 21.5v414q0 13 8.5 21.5t21.5 8.5h14q13 0 21.5 -8.5t8.5 -21.5v-414z" />
    <glyph glyph-name="j" unicode="j" horiz-adv-x="248" 
d="M161 591q0 -12 -8 -21t-21 -9h-14q-13 0 -22 8t-9 22v55q0 12 9 21t22 9h14q29 0 29 -30v-55zM161 -57q0 -23 -6 -40t-24 -33l-94 -82q-10 -8 -18 -8q-7 0 -13 6l-9 9q-5 5 -5 13q0 6 9 19l67 83q8 10 13.5 23t5.5 24v490q0 27 28 27h17q12 0 20.5 -7.5t8.5 -19.5v-504z
" />
    <glyph glyph-name="k" unicode="k" horiz-adv-x="394" 
d="M376 33q0 -13 -13 -22l-13 -9q-6 -5 -17 -5q-18 0 -27 14l-138 211l-33 -33v-159q0 -12 -9 -21t-21 -9h-14q-13 0 -21.5 8.5t-8.5 21.5v616q0 13 8.5 21.5t21.5 8.5h14q13 0 21.5 -8.5t8.5 -21.5v-359l181 181q9 9 21 9q11 0 20 -9l8 -8q10 -10 10 -20q0 -11 -10 -20
l-144 -145l149 -225q6 -9 6 -17z" />
    <glyph glyph-name="l" unicode="l" horiz-adv-x="248" 
d="M161 30q0 -12 -9 -21t-21 -9h-14q-13 0 -21.5 8.5t-8.5 21.5v616q0 13 8.5 21.5t21.5 8.5h14q13 0 21.5 -8.5t8.5 -21.5v-616z" />
    <glyph glyph-name="m" unicode="m" horiz-adv-x="622" 
d="M561 30q0 -12 -9 -21t-21 -9h-14q-13 0 -21.5 8.5t-8.5 21.5v325q0 21 -15.5 36.5t-36.5 15.5h-34q-21 0 -37 -15t-16 -37v-325q0 -12 -9 -21t-21 -9h-14q-13 0 -21.5 8.5t-8.5 21.5v324q0 22 -15.5 37.5t-36.5 15.5h-34q-23 0 -38 -15t-15 -37v-325q0 -12 -9 -21t-21 -9
h-14q-13 0 -21.5 8.5t-8.5 21.5v419q0 25 27 25h13q11 0 19 -14l9 -18q5 -12 15 -12q24 18 44 31q24 16 48 16h14q18 0 33.5 -7t26.5 -16t20 -16.5t19 -7.5q15 0 32 14q41 33 68 33h16q44 0 70 -31t26 -79v-337z" />
    <glyph glyph-name="n" unicode="n" 
d="M378 30q0 -12 -9 -21t-21 -9h-14q-13 0 -21.5 8.5t-8.5 21.5v313q0 28 -19 46t-44 18h-43q-25 0 -44 -17t-19 -47v-313q0 -12 -9 -21t-21 -9h-14q-13 0 -21.5 8.5t-8.5 21.5v419q0 25 27 25h13q11 0 19 -14l9 -18q5 -12 18 -12q2 0 53 31q26 16 52 16h15q48 0 79.5 -33.5
t31.5 -78.5v-335z" />
    <glyph glyph-name="o" unicode="o" 
d="M378 112q0 -46 -32 -79t-79 -33h-95q-47 0 -79 33t-32 79v252q0 46 34 78t81 32h87q47 0 81 -32t34 -78v-252zM304 122v230q0 23 -15 39t-39 16h-60q-23 0 -39 -16t-16 -39v-230q0 -23 15 -39t39 -16h60q23 0 39 16t16 39z" />
    <glyph glyph-name="p" unicode="p" horiz-adv-x="436" 
d="M378 110q0 -46 -32.5 -79.5t-78.5 -33.5h-15q-34 0 -66 22t-39 22q-12 0 -12 -19v-212q0 -12 -9 -21t-21 -9h-14q-13 0 -21.5 8.5t-8.5 21.5v640q0 8 6 16t17 8h14q14 0 21 -11l13 -23q6 -10 15 -10q2 0 53 31q26 16 52 16h15q46 0 78.5 -32.5t32.5 -81.5v-253zM304 129
v215q0 26 -17.5 44.5t-44.5 18.5h-44q-27 0 -45 -18t-18 -45v-215q0 -26 18 -44t45 -18h44q26 0 44 18t18 44z" />
    <glyph glyph-name="q" unicode="q" 
d="M378 -190q0 -13 -8.5 -21.5t-21.5 -8.5h-14q-13 0 -21.5 8.5t-8.5 21.5v212q0 19 -12 19q-6 0 -38 -22t-67 -22h-15q-46 0 -78.5 33.5t-32.5 79.5v253q0 50 32 82t79 32h15q28 0 53 -15.5t52 -31.5q9 0 15 10l13 23q7 11 21 11h14q23 0 23 -24v-640zM304 129v215
q0 27 -18 45t-45 18h-44q-26 0 -44 -18t-18 -45v-215q0 -26 18 -44t44 -18h44q26 0 44.5 17.5t18.5 44.5z" />
    <glyph glyph-name="r" unicode="r" horiz-adv-x="330" 
d="M334 435q0 -12 -8.5 -20t-21.5 -8h-109q-24 0 -42 -17t-18 -47v-313q0 -12 -9 -21t-21 -9h-14q-13 0 -21.5 8.5t-8.5 21.5v419q0 25 27 25h13q11 0 19 -14l9 -18q5 -12 18 -12q8 0 40 22t64 22h53q30 0 30 -28v-11z" />
    <glyph glyph-name="s" unicode="s" horiz-adv-x="398" 
d="M350 112q0 -52 -28 -82t-75 -30h-169q-30 0 -30 28v11q0 12 8.5 20t21.5 8h154q23 0 35 20q9 15 9 37v40q0 17 -9 28q-12 15 -35 15h-85q-39 0 -68.5 27t-29.5 71v65q0 36 29 67q34 37 85 37h127q30 0 30 -28v-11q0 -12 -8.5 -20t-21.5 -8h-110q-27 0 -42 -14t-15 -37
v-37q0 -19 14.5 -34.5t40.5 -15.5h82q39 0 64.5 -23.5t25.5 -66.5v-67z" />
    <glyph glyph-name="t" unicode="t" horiz-adv-x="320" 
d="M320 435q0 -12 -8.5 -20t-21.5 -8h-104v-377q0 -12 -9 -21t-21 -9h-14q-13 0 -21.5 8.5t-8.5 21.5v377h-57q-30 0 -30 28v11q0 12 8.5 20t21.5 8h57v172q0 13 8.5 21.5t21.5 8.5h14q13 0 21.5 -8.5t8.5 -21.5v-172h104q30 0 30 -28v-11z" />
    <glyph glyph-name="u" unicode="u" 
d="M378 25q0 -10 -6.5 -17.5t-16.5 -7.5h-15q-14 0 -22 14l-9 17q-7 10 -16 10q-7 0 -39 -22t-67 -22h-15q-46 0 -78.5 33.5t-32.5 79.5v334q0 13 8.5 21.5t21.5 8.5h14q13 0 21.5 -8.5t8.5 -21.5v-314q0 -27 18 -45t45 -18h43q27 0 45 18t18 45v314q0 13 8.5 21.5t21.5 8.5
h14q13 0 21.5 -8.5t8.5 -21.5v-419z" />
    <glyph glyph-name="v" unicode="v" horiz-adv-x="417" 
d="M392 442l-2 -11l-130 -400q-10 -31 -41 -31h-21q-13 0 -25 8.5t-16 22.5l-130 400l-2 11q0 20 22 27l14 5q5 2 14 2q21 0 27 -18l82 -283q12 -41 19 -79q2 -13 5 -31q3 18 5 31q6 29 20 79l82 283q6 18 28 18q5 0 13 -2l14 -5q22 -7 22 -27z" />
    <glyph glyph-name="w" unicode="w" horiz-adv-x="585" 
d="M541 445l-1 -7l-70 -391q-3 -20 -15.5 -33.5t-30.5 -13.5h-18q-16 0 -28.5 13t-17.5 30l-44 138l-23 77l-24 -77l-44 -138q-5 -15 -18 -29t-28 -14h-18q-17 0 -30 14t-16 33l-70 391l-1 7q0 25 25 28l13 2q27 5 32 -23l47 -278q5 -30 9 -77q1 -14 3 -36q3 14 5 24
q6 24 18 64l47 149q4 13 13 21t23 8h27q14 0 23 -8t13 -21l47 -149q10 -34 17 -63l5 -25q2 22 4.5 48t8.5 65l47 278q5 28 32 23l13 -2q25 -3 25 -28z" />
    <glyph glyph-name="x" unicode="x" horiz-adv-x="417" 
d="M392 33q0 -7 -4 -13q-3 -5 -9 -9l-11 -8q-10 -6 -20 -6q-12 0 -25 19l-115 164l-114 -164q-13 -19 -26 -19q-9 0 -19 6l-11 8q-13 9 -13 22q0 11 10 25l129 185l-125 180q-5 7 -5 15q0 16 11 23l16 10q8 5 17 5q14 0 21 -11l109 -158l110 158q9 12 23 12q8 0 15 -5
l15 -11q12 -9 12 -23q0 -8 -5 -15l-126 -180l130 -185q10 -14 10 -25z" />
    <glyph glyph-name="y" unicode="y" horiz-adv-x="448" 
d="M422 442l-2 -10l-231 -632q-7 -20 -24 -20q-7 0 -17 5l-11 6q-13 8 -13 20q0 9 2 14l64 175q-8 0 -13 18l-151 414l-2 10q0 18 19 26l16 6q8 2 12 2q19 0 25 -19l128 -360l128 360q8 20 27 20q3 0 9 -2l15 -7q19 -9 19 -26z" />
    <glyph glyph-name="z" unicode="z" horiz-adv-x="394" 
d="M366 28q0 -12 -9 -20t-21 -8h-278q-10 0 -19 8t-9 19v16q0 12 7 23l232 341h-203q-30 0 -30 28v11q0 12 8.5 20t21.5 8h269q11 0 19 -8t8 -19v-9q0 -9 -6 -20.5t-12 -19.5l-225 -331h217q13 0 21.5 -7.5t8.5 -20.5v-11z" />
    <glyph glyph-name="braceleft" unicode="{" horiz-adv-x="317" 
d="M262 -192q0 -11 -7 -17l-11 -9q-5 -4 -13 -1t-13 7l-55 53q-26 24 -26 63v319l-73 24q-19 6 -19 18v15q0 7 5 12q4 4 14 7l73 24v301q0 37 26 63l54 53q9 9 17 9q4 0 7 -3l13 -10q8 -6 8 -17q0 -4 -2 -8l-2 -2l-47 -76v-738l47 -75q4 -8 4 -12z" />
    <glyph glyph-name="bar" unicode="|" horiz-adv-x="220" 
d="M140 -230q0 -20 -20 -20h-19q-21 0 -21 20v960q0 20 20 20h19q21 0 21 -20v-960z" />
    <glyph glyph-name="braceright" unicode="}" horiz-adv-x="317" 
d="M55 -192q0 6 4 12l47 75v738l-47 76q-4 6 -4 10q0 11 8 17l13 10q10 8 24 -6l54 -53q26 -26 26 -63v-301l73 -24q19 -6 19 -19v-15q0 -6 -5.5 -10.5t-13.5 -7.5l-73 -24v-319q0 -39 -26 -63l-55 -53q-8 -8 -19 -8q-5 0 -7 2l-11 9q-7 6 -7 17z" />
    <glyph glyph-name="asciitilde" unicode="~" horiz-adv-x="500" 
d="M471 318q0 -8 -4 -15q-3 -5 -10 -11l-79 -68q-15 -13 -28.5 -19t-30.5 -6t-33.5 5.5t-27.5 15.5l-49 46q-12 10 -15 10q-8 0 -16 -6l-91 -62q-14 -9 -20 -9q-16 0 -27 8.5t-11 25.5q0 7 4.5 14t10.5 12l79 68q29 24 65 24q38 0 58 -20l51 -51q3 -3 8 -5h4q6 0 14 6l92 62
q12 8 20 8q15 0 25.5 -9.5t10.5 -23.5z" />
    <glyph glyph-name="nonbreakingspace" unicode="&#xa0;" horiz-adv-x="205" 
 />
    <glyph glyph-name="exclamdown" unicode="&#xa1;" horiz-adv-x="248" 
d="M87 435q0 12 9 21t21 9h14q13 0 21.5 -8.5t8.5 -21.5v-405q0 -13 -8.5 -21.5t-21.5 -8.5h-14q-13 0 -21.5 8.5t-8.5 21.5v405zM87 646q0 12 9 21t21 9h14q13 0 21.5 -8.5t8.5 -21.5v-83q0 -13 -8.5 -21.5t-21.5 -8.5h-14q-13 0 -21.5 8.5t-8.5 21.5v83z" />
    <glyph glyph-name="cent" unicode="&#xa2;" horiz-adv-x="380" 
d="M358 28q0 -12 -9 -20t-21 -8h-66v-80q0 -22 -22 -22h-18q-22 0 -22 22v80h-29q-46 0 -78 34t-32 80v249q0 46 33.5 78.5t80.5 32.5h25v77q0 22 22 22h18q22 0 22 -22v-77h54q14 0 22.5 -7.5t8.5 -20.5v-11q0 -12 -9 -20t-21 -8h-116q-35 0 -50.5 -17.5t-15.5 -47.5v-213
q0 -33 18.5 -47.5t48.5 -14.5h126q13 0 21.5 -7.5t8.5 -20.5v-11z" />
    <glyph glyph-name="sterling" unicode="&#xa3;" horiz-adv-x="442" 
d="M422 28q0 -11 -9.5 -19.5t-21.5 -8.5h-320q-13 0 -22 7.5t-9 20.5v12q0 11 9 19t21 8h49v237h-37q-12 0 -21 8t-9 20v12q0 11 9 19t21 8h37v277q0 12 8 20t20 8h18q12 0 20 -8t8 -20v-277h115q12 0 20.5 -7.5t8.5 -19.5v-12q0 -12 -9 -20t-20 -8h-115v-237h198
q11 0 21 -8t10 -19v-12z" />
    <glyph glyph-name="currency" unicode="&#xa4;" horiz-adv-x="470" 
d="M455 28q0 -12 -8.5 -20t-21.5 -8h-184q-47 0 -80 32t-33 79v126h-58q-30 0 -30 28v11q0 12 8.5 20t21.5 8h58v74h-58q-30 0 -30 28v11q0 12 8.5 20t21.5 8h58v119q0 46 33 79t80 33h151q30 0 30 -28v-11q0 -12 -8.5 -20t-21.5 -8h-129q-28 0 -44.5 -16.5t-16.5 -44.5
v-103h127q13 0 21.5 -7.5t8.5 -20.5v-11q0 -12 -9 -20t-21 -8h-127v-74h127q13 0 21.5 -7.5t8.5 -20.5v-11q0 -12 -9 -20t-21 -8h-127v-107q0 -27 17 -45t45 -18h161q30 0 30 -28v-11z" />
    <glyph glyph-name="yen" unicode="&#xa5;" horiz-adv-x="408" 
d="M386 644l-3 -12l-142 -290v-51h69q30 0 30 -28v-11q0 -12 -8.5 -20t-21.5 -8h-69v-194q0 -12 -9 -21t-21 -9h-14q-13 0 -21.5 8.5t-8.5 21.5v194h-68q-14 0 -22.5 7.5t-8.5 20.5v11q0 12 9 20t22 8h68v50l-142 291l-3 12q0 16 16 24l16 8q6 3 12 3q17 0 24 -15l114 -232
l114 232q6 15 25 15q5 0 11 -3l16 -7q16 -6 16 -25z" />
    <glyph glyph-name="brokenbar" unicode="&#xa6;" horiz-adv-x="196" 
d="M135 325q0 -12 -9 -21t-21 -9h-14q-13 0 -21.5 8.5t-8.5 21.5v321q0 13 8.5 21.5t21.5 8.5h14q13 0 21.5 -8.5t8.5 -21.5v-321zM135 -190q0 -12 -9 -21t-21 -9h-14q-13 0 -21.5 8.5t-8.5 21.5v336q0 13 8.5 21.5t21.5 8.5h14q13 0 21.5 -8.5t8.5 -21.5v-336z" />
    <glyph glyph-name="section" unicode="&#xa7;" horiz-adv-x="435" 
d="M374 158q0 -30 -12 -54q-4 -8 -13 -19q8 -8 11 -14q11 -18 11 -38v-138q0 -49 -31 -82t-83 -33h-166q-30 0 -30 28v11q0 12 8.5 20t21.5 8h144q30 0 46 18.5t16 43.5v96q0 20 -4 29t-20 21l-164 123q-18 13 -28 30q-14 23 -14 51v73q0 26 14 49q4 8 15 19l-9 9
q-8 8 -14 24t-6 33v102q0 45 33.5 76.5t74.5 31.5h154q13 0 21.5 -7.5t8.5 -20.5v-11q0 -12 -9 -20t-21 -8h-130q-22 0 -40 -16t-18 -40v-68q0 -18 4 -27t18 -20l166 -124q22 -16 33.5 -38t11.5 -54v-64zM300 172v37q0 19 -5.5 32.5t-19.5 23.5l-113 85q-9 -4 -15 -16.5
t-6 -24.5v-38q0 -28 28 -49l114 -85q6 6 8 10q9 14 9 25z" />
    <glyph glyph-name="dieresis" unicode="&#xa8;" horiz-adv-x="250" 
d="M231 578q0 -20 -20 -20h-28q-20 0 -20 20v78q0 20 20 20h27q21 0 21 -20v-78zM87 578q0 -20 -20 -20h-27q-21 0 -21 20v78q0 20 20 20h28q20 0 20 -20v-78z" />
    <glyph glyph-name="copyright" unicode="&#xa9;" horiz-adv-x="602" 
d="M541 83q0 -35 -24 -59t-59 -24h-314q-35 0 -59 24t-24 59v510q0 35 24 59t59 24h314q35 0 59 -24t24 -59v-510zM487 99v478q0 20 -13.5 34.5t-35.5 14.5h-274q-21 0 -35 -14t-14 -35v-478q0 -21 14 -35t35 -14h274q21 0 35 14t14 35zM425 147q0 -11 -8 -18t-19 -7h-115
q-39 0 -66.5 26.5t-27.5 64.5v253q0 39 27.5 65.5t66.5 26.5h102q13 0 20 -8t7 -17v-14q0 -10 -8 -18t-19 -8h-84q-22 0 -34 -12t-12 -32v-216q0 -20 13 -33t34 -13h96q10 0 18.5 -7.5t8.5 -17.5v-15z" />
    <glyph glyph-name="ordfeminine" unicode="&#xaa;" horiz-adv-x="347" 
d="M297 326q0 -20 -18 -20h-11q-9 0 -18 11l-7 13q-3 8 -12 8q-6 0 -31 -17t-52 -17h-11q-36 0 -61.5 26.5t-25.5 61.5v60q0 39 25 64t62 25h11q27 0 59 -25q15 -12 23 -12q10 0 10 14v56q0 50 -52 50h-89q-23 0 -23 22v8q0 10 6 16t17 6h110q36 0 62 -25t26 -60v-265z
M240 408v29q0 21 -14 35t-36 14h-33q-20 0 -34.5 -13.5t-14.5 -35.5v-29q0 -21 14 -35t35 -14h33q20 0 35 14t15 35z" />
    <glyph glyph-name="guillemotleft" unicode="&#xab;" horiz-adv-x="556" 
d="M290 90q0 -6 -4 -12q-2 -3 -8 -8l-7 -5q-8 -6 -18 -6t-18 8l-169 171q-14 14 -14 24v21q0 10 14 24l169 171q8 8 19 8q9 0 17 -6l7 -5q6 -5 9 -10t3 -10q0 -11 -7 -18l-145 -164l145 -165q7 -9 7 -18zM516 90q0 -6 -4 -12q-2 -3 -8 -8l-7 -5q-8 -6 -18 -6t-18 8l-169 171
q-14 14 -14 24v21q0 10 14 24l169 171q8 8 19 8q9 0 17 -6l7 -5q6 -5 9 -10t3 -10q0 -11 -7 -18l-145 -164l145 -165q7 -9 7 -18z" />
    <glyph glyph-name="minus" unicode="&#xad;" horiz-adv-x="500" 
d="M455 269q0 -12 -9 -20t-21 -8h-350q-30 0 -30 28v11q0 12 8.5 20t21.5 8h350q13 0 21.5 -7.5t8.5 -20.5v-11z" />
    <glyph glyph-name="registered" unicode="&#xae;" horiz-adv-x="481" 
d="M420 249q0 -20 -15 -34t-35 -14h-259q-20 0 -35 14t-15 34v378q0 20 14.5 34.5t35.5 14.5h259q20 0 35 -14t15 -35v-378zM380 262v353q0 10 -6.5 16.5t-16.5 6.5h-233q-12 0 -17.5 -8t-5.5 -15v-353q0 -10 6.5 -16.5t16.5 -6.5h233q10 0 16.5 6.5t6.5 16.5zM337 324
q0 -11 -8 -14l-10 -4l-8 -3q-12 0 -17 11l-47 101h-35v-94q0 -19 -21 -19h-6q-8 0 -13.5 5.5t-5.5 13.5v248q0 17 16 17h8q8 0 12 -9l3 -8q2 -5 8 -5q5 0 15 7q23 17 36 17h5q23 0 37 -16t14 -40v-58q0 -35 -27 -51l43 -95zM274 476v52q0 15 -16 15h-30q-16 0 -16 -15v-71
h41q21 0 21 19z" />
    <glyph glyph-name="macron" unicode="&#xaf;" horiz-adv-x="250" 
d="M215 643q0 -26 -26 -26h-127q-11 0 -19 7t-8 19v6q0 11 8 19t19 8h126q11 0 19 -8t8 -19v-6z" />
    <glyph glyph-name="degree" unicode="&#xb0;" horiz-adv-x="310" 
d="M265 525q0 -29 -21 -49t-50 -20h-79q-29 0 -49.5 19.5t-20.5 49.5v81q0 30 20 50t50 20h79q29 0 50 -20t21 -50v-81zM206 538v55q0 24 -25 24h-53q-24 0 -24 -24v-55q0 -23 24 -23h53q25 0 25 23z" />
    <glyph glyph-name="plusminus" unicode="&#xb1;" horiz-adv-x="500" 
d="M455 269q0 -12 -9 -20t-21 -8h-139v-101q0 -12 -9 -21t-21 -9h-14q-13 0 -21.5 8.5t-8.5 21.5v101h-137q-13 0 -21.5 7.5t-8.5 20.5v11q0 12 9 20t21 8h137v101q0 13 8.5 21.5t21.5 8.5h14q13 0 21.5 -8.5t8.5 -21.5v-101h139q13 0 21.5 -7.5t8.5 -20.5v-11zM455 28
q0 -12 -9 -20t-21 -8h-350q-13 0 -21.5 7.5t-8.5 20.5v11q0 12 9 20t21 8h350q13 0 21.5 -7.5t8.5 -20.5v-11z" />
    <glyph glyph-name="twosuperior" unicode="&#xb2;" horiz-adv-x="310" 
d="M264 330q0 -11 -8 -18t-19 -7h-178v105q0 26 11 41.5t31 28.5l63 43q16 10 21.5 17.5t5.5 20.5v30q0 30 -33 30h-69q-28 0 -28 22v10q0 10 7.5 16.5t18.5 6.5h97q24 0 45 -18t21 -46v-57q0 -16 -9.5 -34t-25.5 -29l-73 -50q-13 -9 -17 -14q-7 -9 -7 -23v-45h119
q27 0 27 -23v-7z" />
    <glyph glyph-name="threesuperior" unicode="&#xb3;" horiz-adv-x="310" 
d="M242 373q0 -28 -21 -48t-52 -20h-93q-27 0 -27 24v8q0 9 7.5 16t19.5 7h83q13 0 18.5 7t5.5 19v59q0 22 -24 22h-51q-10 0 -16.5 7.5t-6.5 16.5v8q0 5 3 10q8 13 22 13h50q18 0 18 20v55q0 24 -24 24h-71q-11 0 -18 7t-7 16v9q0 23 25 23h88q29 0 47.5 -20.5t18.5 -42.5
v-74q0 -15 -9.5 -28t-27.5 -17q18 -3 30 -17t12 -29v-75z" />
    <glyph glyph-name="acute" unicode="&#xb4;" horiz-adv-x="250" 
d="M214 633q0 -16 -13 -23l-132 -75q-4 -2 -12.5 -0.5t-11.5 5.5l-7 10q-1 1 -2 6q0 10 7 16l114 101q8 6 17 6q15 0 25 -13l10 -14q5 -8 5 -19z" />
    <glyph glyph-name="mu" unicode="&#xb5;" 
d="M378 24q0 -8 -6 -16t-17 -8h-15q-12 0 -20 12l-11 18q-7 11 -16 11q-8 0 -39 -22t-63 -22h-9q-14 0 -27 3.5t-20 11.5v-202q0 -12 -9 -21t-21 -9h-14q-13 0 -21.5 8.5t-8.5 21.5v634q0 13 8.5 21.5t21.5 8.5h14q13 0 21.5 -8.5t8.5 -21.5v-316q0 -25 17 -43t45 -18h45
q30 0 46 20t16 43v314q0 13 8.5 21.5t21.5 8.5h14q13 0 21.5 -8.5t8.5 -21.5v-420z" />
    <glyph glyph-name="paragraph" unicode="&#xb6;" horiz-adv-x="574" 
d="M549 637q0 -12 -9 -20t-21 -8h-42v-799q0 -12 -9 -21t-21 -9h-14q-13 0 -21.5 8.5t-8.5 21.5v799h-57v-799q0 -12 -9 -21t-21 -9h-14q-13 0 -21.5 8.5t-8.5 21.5v385h-97q-43 0 -78.5 34.5t-35.5 80.5v254q0 50 32 81t80 31h345q14 0 22.5 -7.5t8.5 -20.5v-11zM272 262
v347h-76q-61 0 -61 -66v-215q0 -66 65 -66h72z" />
    <glyph glyph-name="periodcentered" unicode="&#xb7;" horiz-adv-x="230" 
d="M161 235q0 -9 -10.5 -17t-22.5 -8h-28q-13 0 -22 7t-9 20v71q0 11 9 20t21 9h32q12 0 21 -8t9 -21v-73z" />
    <glyph glyph-name="periodcentered" unicode="&#x2219;" horiz-adv-x="230" 
d="M161 235q0 -9 -10.5 -17t-22.5 -8h-28q-13 0 -22 7t-9 20v71q0 11 9 20t21 9h32q12 0 21 -8t9 -21v-73z" />
    <glyph glyph-name="cedilla" unicode="&#xb8;" horiz-adv-x="250" 
d="M207 -162q0 -25 -17.5 -41.5t-43.5 -16.5h-71q-9 0 -16.5 6.5t-7.5 13.5v12q0 8 7 14t16 6h52q26 0 26 25v13q0 14 -6 21t-22 7h-41v106h55v-54h7q26 0 44 -16t18 -42v-54z" />
    <glyph glyph-name="onesuperior" unicode="&#xb9;" horiz-adv-x="310" 
d="M196 328q0 -10 -6.5 -16.5t-16.5 -6.5h-13q-10 0 -16.5 6.5t-6.5 16.5v245l-48 -26q-2 -1 -6 -2h-4q-19 0 -19 17q0 8 6 14l83 84q5 5 11 10.5t12 5.5h10q14 0 14 -15v-333z" />
    <glyph glyph-name="ordmasculine" unicode="&#xba;" horiz-adv-x="347" 
d="M297 394q0 -36 -25 -62t-61 -26h-74q-37 0 -62 26t-25 62v196q0 36 26 61t64 25h68q36 0 62.5 -25.5t26.5 -60.5v-196zM240 401v180q0 17 -12 30t-31 13h-46q-18 0 -30.5 -12.5t-12.5 -30.5v-180q0 -17 12 -30t30 -13h47q18 0 30.5 12.5t12.5 30.5z" />
    <glyph glyph-name="guillemotright" unicode="&#xbb;" horiz-adv-x="556" 
d="M278 262q0 -10 -14 -24l-169 -171q-8 -8 -19 -8q-9 0 -17 6l-7 5q-6 5 -9 10t-3 10q0 9 7 18l145 165l-145 164q-7 7 -7 18q0 6 4 12q2 3 8 8l7 5q8 6 18 6t18 -8l169 -171q14 -14 14 -24v-21zM504 262q0 -10 -14 -24l-169 -171q-8 -8 -19 -8q-9 0 -17 6l-7 5q-6 5 -9 10
t-3 10q0 9 7 18l145 165l-145 164q-7 7 -7 18q0 6 4 12q2 3 8 8l7 5q8 6 18 6t18 -8l169 -171q14 -14 14 -24v-21z" />
    <glyph glyph-name="onequarter" unicode="&#xbc;" horiz-adv-x="700" 
d="M641 119q0 -9 -7.5 -15.5t-17.5 -6.5h-39v-73q0 -9 -7.5 -16.5t-18.5 -7.5h-7q-26 0 -26 24v73h-118q-12 0 -22 9t-10 19v10q0 6 3 13t9 17l108 187q3 6 11 12.5t18 6.5h31q11 0 20 -7t9 -22v-190h39q11 0 18 -7t7 -16v-10zM547 651l-378 -650q-10 -16 -24 -7l-14 8
q-16 10 -7 25l378 650q7 10 15 10q4 0 9 -3l14 -8q10 -7 10 -15q0 -5 -3 -10zM195 328q0 -10 -6.5 -16.5t-16.5 -6.5h-13q-10 0 -16.5 6.5t-6.5 16.5v245l-48 -26q-2 -1 -6 -2h-4q-19 0 -19 17q0 8 6 14l83 84q5 5 11 10.5t12 5.5h10q14 0 14 -15v-333zM518 152v136
l-80 -136h80z" />
    <glyph glyph-name="onehalf" unicode="&#xbd;" horiz-adv-x="700" 
d="M640 25q0 -11 -8 -18t-19 -7h-178v105q0 26 11 41.5t31 28.5l63 43q16 10 21.5 17.5t5.5 20.5v30q0 30 -33 30h-69q-28 0 -28 22v10q0 10 7.5 16.5t18.5 6.5h97q24 0 45 -18t21 -46v-57q0 -16 -9.5 -34t-25.5 -29l-73 -50q-13 -9 -17 -14q-7 -9 -7 -23v-45h119
q27 0 27 -23v-7zM534 651l-378 -650q-10 -16 -24 -7l-14 8q-16 10 -7 25l378 650q7 10 15 10q4 0 9 -3l14 -8q10 -7 10 -15q0 -5 -3 -10zM196 328q0 -10 -6.5 -16.5t-16.5 -6.5h-13q-10 0 -16.5 6.5t-6.5 16.5v245l-48 -26q-2 -1 -6 -2h-4q-19 0 -19 17q0 8 6 14l83 84
q5 5 11 10.5t12 5.5h10q14 0 14 -15v-333z" />
    <glyph glyph-name="threequarters" unicode="&#xbe;" horiz-adv-x="700" 
d="M564 651l-378 -650q-10 -16 -24 -7l-14 8q-16 10 -7 25l378 650q7 10 15 10q4 0 9 -3l14 -8q10 -7 10 -15q0 -5 -3 -10zM640 119q0 -22 -26 -22h-37v-73q0 -9 -7.5 -16.5t-18.5 -7.5h-7q-26 0 -26 24v73h-118q-11 0 -21 9t-10 19v10q0 5 3.5 14.5t7.5 15.5l108 187
q3 6 11 12.5t18 6.5h31q12 0 20 -6.5t8 -22.5v-190h38q10 0 18 -7t8 -16v-10zM243 373q0 -28 -21 -48t-52 -20h-93q-27 0 -27 24v8q0 9 7.5 16t19.5 7h83q13 0 18.5 7t5.5 19v59q0 22 -24 22h-51q-10 0 -16.5 7.5t-6.5 16.5v8q0 5 3 10q8 13 22 13h50q18 0 18 20v55
q0 24 -24 24h-71q-11 0 -18 7t-7 16v9q0 23 25 23h88q29 0 47.5 -20.5t18.5 -42.5v-74q0 -15 -9.5 -28t-27.5 -17q18 -3 30 -17t12 -29v-75zM518 152v136l-80 -136h80z" />
    <glyph glyph-name="questiondown" unicode="&#xbf;" horiz-adv-x="354" 
d="M48 260q0 45 33.5 78.5t78.5 33.5h37v63q0 12 9 21t21 9h14q13 0 21.5 -8.5t8.5 -21.5v-97q0 -33 -34 -33h-61q-28 0 -43 -23q-11 -17 -11 -42v-108q0 -28 15.5 -46.5t43.5 -18.5h103q30 0 30 -28v-11q0 -12 -8.5 -20t-21.5 -8h-125q-46 0 -78.5 32.5t-32.5 79.5v148z
M197 646q0 12 9 21t21 9h14q13 0 21.5 -8.5t8.5 -21.5v-83q0 -13 -8.5 -21.5t-21.5 -8.5h-14q-13 0 -21.5 8.5t-8.5 21.5v83z" />
    <glyph glyph-name="Agrave" unicode="&#xc0;" horiz-adv-x="471" 
d="M436 25q0 -9 -5.5 -14.5t-15.5 -8.5l-17 -4q-11 -3 -21 3t-12 17l-41 183h-177l-41 -183q-5 -27 -33 -20l-17 4q-9 3 -15 8.5t-6 14.5l1 9l140 610q7 32 39 32h41q32 0 39 -32l140 -610zM308 268l-47 207q-11 47 -20 105q-1 12 -4 31q-6 -32 -9 -50q-8 -44 -18 -86
l-47 -207h145zM325 756q-1 -5 -2 -6l-7 -10q-4 -7 -16 -7q-4 0 -8 2l-132 75q-13 7 -13 23q0 11 5 19l10 14q10 13 26 13q10 0 16 -6l114 -101q7 -6 7 -16z" />
    <glyph glyph-name="Aacute" unicode="&#xc1;" horiz-adv-x="471" 
d="M436 25q0 -9 -5.5 -14.5t-15.5 -8.5l-17 -4q-11 -3 -21 3t-12 17l-41 183h-177l-41 -183q-5 -27 -33 -20l-17 4q-9 3 -15 8.5t-6 14.5l1 9l140 610q7 32 39 32h41q32 0 39 -32l140 -610zM308 268l-47 207q-11 47 -20 105q-1 12 -4 31q-6 -32 -9 -50q-8 -44 -18 -86
l-47 -207h145zM329 833q0 -16 -13 -23l-132 -75q-4 -2 -12.5 -0.5t-11.5 5.5l-7 10q-1 1 -2 6q0 10 7 16l114 101q8 6 17 6q15 0 25 -13l10 -14q5 -8 5 -19z" />
    <glyph glyph-name="Acircumflex" unicode="&#xc2;" horiz-adv-x="471" 
d="M436 25q0 -9 -5.5 -14.5t-15.5 -8.5l-17 -4q-11 -3 -21 3t-12 17l-41 183h-177l-41 -183q-5 -27 -33 -20l-17 4q-9 3 -15 8.5t-6 14.5l1 9l140 610q7 32 39 32h41q32 0 39 -32l140 -610zM308 268l-47 207q-11 47 -20 105q-1 12 -4 31q-6 -32 -9 -50q-8 -44 -18 -86
l-47 -207h145zM365 754q0 -7 -4 -11l-9 -9q-3 -3 -7 -5h-3q-7 0 -14 5l-92 81l-92 -81q-7 -5 -12 -5q-7 0 -12 5l-9 9q-4 4 -4 11q0 8 5 13l73 84q14 16 16 17q10 8 24 8h25q11 0 21 -8q6 -4 16 -17l73 -84q5 -5 5 -13z" />
    <glyph glyph-name="Atilde" unicode="&#xc3;" horiz-adv-x="471" 
d="M436 25q0 -9 -5.5 -14.5t-15.5 -8.5l-17 -4q-11 -3 -21 3t-12 17l-41 183h-177l-41 -183q-5 -27 -33 -20l-17 4q-9 3 -15 8.5t-6 14.5l1 9l140 610q7 32 39 32h41q32 0 39 -32l140 -610zM308 268l-47 207q-11 47 -20 105q-1 12 -4 31q-6 -32 -9 -50q-8 -44 -18 -86
l-47 -207h145zM384 855q0 -11 -9 -20l-55 -57q-8 -8 -21 -12.5t-27 -4.5q-15 0 -27.5 6t-19.5 14l-29 36l-7 4q-9 -3 -12 -5l-65 -50q-7 -5 -13 -5q-25 0 -25 24q0 11 9 20l56 57q17 17 46 17q31 0 46 -19l29 -36q2 -2 7 -4q1 0 5 -1l10 5l63 50q7 5 14 5q25 0 25 -24z" />
    <glyph glyph-name="Adieresis" unicode="&#xc4;" horiz-adv-x="471" 
d="M436 25q0 -9 -5.5 -14.5t-15.5 -8.5l-17 -4q-11 -3 -21 3t-12 17l-41 183h-177l-41 -183q-5 -27 -33 -20l-17 4q-9 3 -15 8.5t-6 14.5l1 9l140 610q7 32 39 32h41q32 0 39 -32l140 -610zM308 268l-47 207q-11 47 -20 105q-1 12 -4 31q-6 -32 -9 -50q-8 -44 -18 -86
l-47 -207h145zM341 778q0 -20 -20 -20h-28q-20 0 -20 20v78q0 20 20 20h27q21 0 21 -20v-78zM197 778q0 -20 -20 -20h-27q-21 0 -21 20v78q0 20 20 20h28q20 0 20 -20v-78z" />
    <glyph glyph-name="Aring" unicode="&#xc5;" horiz-adv-x="471" 
d="M436 25q0 -9 -5.5 -14.5t-15.5 -8.5l-17 -4q-11 -3 -21 3t-12 17l-41 183h-177l-41 -183q-5 -27 -33 -20l-17 4q-9 3 -15 8.5t-6 14.5l1 9l140 610q7 32 39 32h41q32 0 39 -32l140 -610zM308 268l-47 207q-11 47 -20 105q-1 12 -4 31q-6 -32 -9 -50q-8 -44 -18 -86
l-47 -207h145zM321 781q0 -24 -17 -42t-41 -18h-56q-24 0 -41 18t-17 42v35q0 24 16 42t40 18h60q24 0 40 -18t16 -42v-35zM271 789v20q0 17 -17 17h-37q-18 0 -18 -17v-20q0 -18 17 -18h38q7 0 12 5t5 13z" />
    <glyph glyph-name="AE" unicode="&#xc6;" horiz-adv-x="656" 
d="M626 28q0 -12 -9 -20t-21 -8h-247q-27 0 -27 29v172h-176l-82 -182q-9 -22 -27 -22q-6 0 -16 5l-14 7q-12 6 -12 21q0 7 4 17l274 601q13 28 43 28h266q13 0 21.5 -7.5t8.5 -20.5v-11q0 -12 -9 -20t-21 -8h-186v-238h163q13 0 21.5 -7.5t8.5 -20.5v-11q0 -12 -9 -20
t-21 -8h-163v-237h200q13 0 21.5 -7.5t8.5 -20.5v-11zM322 268v318l-145 -318h145z" />
    <glyph glyph-name="Ccedilla" unicode="&#xc7;" horiz-adv-x="408" 
d="M199 0h-10q-47 0 -80 32t-33 79v454q0 46 33.5 78.5t79.5 32.5h131q13 0 21.5 -7.5t8.5 -20.5v-11q0 -12 -9 -20t-21 -8h-115q-23 0 -39 -16t-16 -39v-423q0 -28 14.5 -46t41.5 -18h147q13 0 21.5 -7.5t8.5 -20.5v-11q0 -12 -9 -20t-21 -8h-99v-50h7q26 0 44 -16t18 -42
v-54q0 -25 -17.5 -41.5t-43.5 -16.5h-71q-9 0 -16.5 6.5t-7.5 13.5v12q0 8 7 14t16 6h52q26 0 26 25v13q0 14 -6 21t-22 7h-41v102z" />
    <glyph glyph-name="Egrave" unicode="&#xc8;" horiz-adv-x="410" 
d="M380 28q0 -12 -8.5 -20t-21.5 -8h-246q-28 0 -28 28v620q0 12 8 20t21 8h231q30 0 30 -28v-11q0 -12 -8.5 -20t-21.5 -8h-186v-238h164q13 0 21.5 -7.5t8.5 -20.5v-11q0 -12 -9 -20t-21 -8h-164v-237h200q30 0 30 -28v-11zM301 756q-1 -5 -2 -6l-7 -10q-4 -7 -16 -7
q-4 0 -8 2l-132 75q-13 7 -13 23q0 11 5 19l10 14q10 13 26 13q10 0 16 -6l114 -101q7 -6 7 -16z" />
    <glyph glyph-name="Eacute" unicode="&#xc9;" horiz-adv-x="410" 
d="M380 28q0 -12 -8.5 -20t-21.5 -8h-246q-28 0 -28 28v620q0 12 8 20t21 8h231q30 0 30 -28v-11q0 -12 -8.5 -20t-21.5 -8h-186v-238h164q13 0 21.5 -7.5t8.5 -20.5v-11q0 -12 -9 -20t-21 -8h-164v-237h200q30 0 30 -28v-11zM335 833q0 -16 -13 -23l-132 -75
q-4 -2 -12.5 -0.5t-11.5 5.5l-7 10q-1 1 -2 6q0 10 7 16l114 101q8 6 17 6q15 0 25 -13l10 -14q5 -8 5 -19z" />
    <glyph glyph-name="Ecircumflex" unicode="&#xca;" horiz-adv-x="410" 
d="M380 28q0 -12 -8.5 -20t-21.5 -8h-246q-28 0 -28 28v620q0 12 8 20t21 8h231q30 0 30 -28v-11q0 -12 -8.5 -20t-21.5 -8h-186v-238h164q13 0 21.5 -7.5t8.5 -20.5v-11q0 -12 -9 -20t-21 -8h-164v-237h200q30 0 30 -28v-11zM349 754q0 -7 -4 -11l-9 -9q-3 -3 -7 -5h-3
q-7 0 -14 5l-92 81l-92 -81q-7 -5 -12 -5q-7 0 -12 5l-9 9q-4 4 -4 11q0 8 5 13l73 84q14 16 16 17q10 8 24 8h25q11 0 21 -8q6 -4 16 -17l73 -84q5 -5 5 -13z" />
    <glyph glyph-name="Edieresis" unicode="&#xcb;" horiz-adv-x="410" 
d="M380 28q0 -12 -8.5 -20t-21.5 -8h-246q-28 0 -28 28v620q0 12 8 20t21 8h231q30 0 30 -28v-11q0 -12 -8.5 -20t-21.5 -8h-186v-238h164q13 0 21.5 -7.5t8.5 -20.5v-11q0 -12 -9 -20t-21 -8h-164v-237h200q30 0 30 -28v-11zM328 778q0 -20 -20 -20h-28q-20 0 -20 20v78
q0 20 20 20h27q21 0 21 -20v-78zM184 778q0 -20 -20 -20h-27q-21 0 -21 20v78q0 20 20 20h28q20 0 20 -20v-78z" />
    <glyph glyph-name="Igrave" unicode="&#xcc;" horiz-adv-x="268" 
d="M208 756q-1 -5 -2 -6l-7 -10q-4 -7 -16 -7q-4 0 -8 2l-132 75q-13 7 -13 23q0 11 5 19l10 14q10 13 26 13q10 0 16 -6l114 -101q7 -6 7 -16zM171 30q0 -12 -9 -21t-21 -9h-14q-13 0 -21.5 8.5t-8.5 21.5v616q0 13 8.5 21.5t21.5 8.5h14q13 0 21.5 -8.5t8.5 -21.5v-616z
" />
    <glyph glyph-name="Iacute" unicode="&#xcd;" horiz-adv-x="268" 
d="M223 833q0 -16 -13 -23l-132 -75q-3 -2 -9 -2q-11 0 -15 7l-7 10l-2 6q0 10 7 16l114 101q8 6 17 6q15 0 25 -13l10 -14q5 -8 5 -19zM171 30q0 -12 -9 -21t-21 -9h-14q-13 0 -21.5 8.5t-8.5 21.5v616q0 13 8.5 21.5t21.5 8.5h14q13 0 21.5 -8.5t8.5 -21.5v-616z" />
    <glyph glyph-name="Icircumflex" unicode="&#xce;" horiz-adv-x="268" 
d="M263 754q0 -7 -4 -11l-9 -9q-3 -3 -7 -5h-3q-7 0 -14 5l-92 81l-92 -81q-7 -5 -12 -5q-7 0 -12 5l-9 9q-4 4 -4 11t5 13l73 84q14 16 16 17q10 8 24 8h25q9 0 16 -4q4 -2 21 -21l73 -84q5 -6 5 -13zM171 30q0 -12 -9 -21t-21 -9h-14q-13 0 -21.5 8.5t-8.5 21.5v616
q0 13 8.5 21.5t21.5 8.5h14q13 0 21.5 -8.5t8.5 -21.5v-616z" />
    <glyph glyph-name="Idieresis" unicode="&#xcf;" horiz-adv-x="268" 
d="M240 778q0 -20 -20 -20h-28q-20 0 -20 20v78q0 20 20 20h27q21 0 21 -20v-78zM96 778q0 -20 -20 -20h-27q-21 0 -21 20v78q0 20 20 20h28q20 0 20 -20v-78zM171 30q0 -12 -9 -21t-21 -9h-14q-13 0 -21.5 8.5t-8.5 21.5v616q0 13 8.5 21.5t21.5 8.5h14q13 0 21.5 -8.5
t8.5 -21.5v-616z" />
    <glyph glyph-name="Eth" unicode="&#xd0;" horiz-adv-x="495" 
d="M419 105q0 -42 -31.5 -73.5t-82.5 -31.5h-217v304h-38q-14 0 -22 8t-8 20v11q0 11 7.5 19.5t22.5 8.5h38v280q0 11 8 18t19 7h13q13 0 19 -12l11 -21q7 -11 16 -11q32 18 57 31q30 16 59 16h11q51 0 84.5 -28.5t33.5 -84.5v-461zM345 132v422q0 22 -14.5 38.5t-39.5 16.5
h-74q-24 0 -39.5 -16.5t-15.5 -38.5v-183h92q13 0 21.5 -8.5t8.5 -19.5v-11q0 -10 -8 -19t-22 -9h-92v-237h119q27 0 45.5 18.5t18.5 46.5z" />
    <glyph glyph-name="Ntilde" unicode="&#xd1;" horiz-adv-x="513" 
d="M437 28q0 -12 -8 -20t-20 -8h-18q-13 0 -23 12q-3 4 -8 13l-210 462v-457q0 -12 -9 -21t-21 -9h-14q-13 0 -21.5 8.5t-8.5 21.5v619q0 11 8 19t20 8h18q21 0 33 -25l208 -458v453q0 13 8.5 21.5t21.5 8.5h14q13 0 21.5 -8.5t8.5 -21.5v-618zM411 855q0 -11 -9 -20
l-55 -57q-8 -8 -21 -12.5t-27 -4.5q-15 0 -27.5 6t-19.5 14l-29 36l-7 4q-9 -3 -12 -5l-65 -50q-7 -5 -13 -5q-25 0 -25 24q0 11 9 20l56 57q17 17 46 17q31 0 46 -19l29 -36q2 -2 7 -4q1 0 5 -1l10 5l63 50q7 5 14 5q25 0 25 -24z" />
    <glyph glyph-name="Ograve" unicode="&#xd2;" horiz-adv-x="513" 
d="M437 110q0 -46 -33 -78t-80 -32h-135q-47 0 -80 32t-33 78v456q0 46 33 78t80 32h135q47 0 80 -32t33 -78v-456zM363 132v411q0 28 -16 47t-44 19h-96q-26 0 -41.5 -18.5t-15.5 -47.5v-411q0 -29 15 -47t42 -18h96q27 0 43.5 18.5t16.5 46.5zM331 756q-1 -5 -2 -6l-7 -10
q-4 -7 -16 -7q-4 0 -8 2l-132 75q-13 7 -13 23q0 11 5 19l10 14q10 13 26 13q10 0 16 -6l114 -101q7 -6 7 -16z" />
    <glyph glyph-name="Oacute" unicode="&#xd3;" horiz-adv-x="513" 
d="M437 110q0 -46 -33 -78t-80 -32h-135q-47 0 -80 32t-33 78v456q0 46 33 78t80 32h135q47 0 80 -32t33 -78v-456zM363 132v411q0 28 -16 47t-44 19h-96q-26 0 -41.5 -18.5t-15.5 -47.5v-411q0 -29 15 -47t42 -18h96q27 0 43.5 18.5t16.5 46.5zM350 833q0 -16 -13 -23
l-132 -75q-4 -2 -12.5 -0.5t-11.5 5.5l-7 10q-1 1 -2 6q0 10 7 16l114 101q8 6 17 6q15 0 25 -13l10 -14q5 -8 5 -19z" />
    <glyph glyph-name="Ocircumflex" unicode="&#xd4;" horiz-adv-x="513" 
d="M437 110q0 -46 -33 -78t-80 -32h-135q-47 0 -80 32t-33 78v456q0 46 33 78t80 32h135q47 0 80 -32t33 -78v-456zM363 132v411q0 28 -16 47t-44 19h-96q-26 0 -41.5 -18.5t-15.5 -47.5v-411q0 -29 15 -47t42 -18h96q27 0 43.5 18.5t16.5 46.5zM386 754q0 -7 -4 -11l-9 -9
q-3 -3 -7 -5h-3q-7 0 -14 5l-92 81l-92 -81q-7 -5 -12 -5q-7 0 -12 5l-9 9q-4 4 -4 11q0 8 5 13l73 84q14 16 16 17q10 8 24 8h25q11 0 21 -8q6 -4 16 -17l73 -84q5 -5 5 -13z" />
    <glyph glyph-name="Otilde" unicode="&#xd5;" horiz-adv-x="513" 
d="M437 110q0 -46 -33 -78t-80 -32h-135q-47 0 -80 32t-33 78v456q0 46 33 78t80 32h135q47 0 80 -32t33 -78v-456zM363 132v411q0 28 -16 47t-44 19h-96q-26 0 -41.5 -18.5t-15.5 -47.5v-411q0 -29 15 -47t42 -18h96q27 0 43.5 18.5t16.5 46.5zM411 855q0 -11 -9 -20
l-55 -57q-8 -8 -21 -12.5t-27 -4.5q-15 0 -27.5 6t-19.5 14l-29 36l-7 4q-9 -3 -12 -5l-65 -50q-7 -5 -13 -5q-25 0 -25 24q0 11 9 20l56 57q17 17 46 17q31 0 46 -19l29 -36q2 -2 7 -4q1 0 5 -1l10 5l63 50q7 5 14 5q25 0 25 -24z" />
    <glyph glyph-name="Odieresis" unicode="&#xd6;" horiz-adv-x="513" 
d="M437 110q0 -46 -33 -78t-80 -32h-135q-47 0 -80 32t-33 78v456q0 46 33 78t80 32h135q47 0 80 -32t33 -78v-456zM363 132v411q0 28 -16 47t-44 19h-96q-26 0 -41.5 -18.5t-15.5 -47.5v-411q0 -29 15 -47t42 -18h96q27 0 43.5 18.5t16.5 46.5zM362 778q0 -20 -20 -20h-28
q-20 0 -20 20v78q0 20 20 20h27q21 0 21 -20v-78zM218 778q0 -20 -20 -20h-27q-21 0 -21 20v78q0 20 20 20h28q20 0 20 -20v-78z" />
    <glyph glyph-name="multiply" unicode="&#xd7;" horiz-adv-x="500" 
d="M426 139q0 -13 -8 -21l-13 -13q-8 -8 -19 -8q-13 0 -21 8l-115 116l-115 -116q-8 -8 -21 -8q-11 0 -19 8l-13 13q-8 8 -8 20t8 20l115 116l-115 115q-8 8 -8 19q0 13 8 21l13 13q8 8 19 8q13 0 21 -8l115 -116l115 116q8 8 21 8q11 0 19 -8l13 -13q8 -8 8 -20t-8 -20
l-115 -115l115 -116q8 -8 8 -19z" />
    <glyph glyph-name="Oslash" unicode="&#xd8;" horiz-adv-x="534" 
d="M460 700l-30 -68q22 -28 22 -66v-456q0 -46 -33 -78t-80 -32h-135q-25 0 -49 11l-31 -69q-7 -18 -26 -10l-13 5q-12 5 -12 19q0 2 2 8l37 82q-21 29 -21 64v456q0 46 33 78t80 32h135q24 0 47 -10l25 56q4 8 11.5 11t15.5 -1l12 -6q17 -8 10 -26zM355 596q-16 13 -37 13
h-96q-26 0 -41.5 -18.5t-15.5 -47.5v-377zM378 132v383l-193 -435q15 -13 37 -13h96q27 0 43.5 18.5t16.5 46.5z" />
    <glyph glyph-name="Ugrave" unicode="&#xd9;" horiz-adv-x="513" 
d="M437 27q0 -9 -5.5 -18t-17.5 -9h-14q-15 0 -23 14l-10 18q-5 9 -15 9q-30 -18 -58.5 -31t-64.5 -13h-18q-67 0 -103 35q-32 31 -32 79v535q0 13 8.5 21.5t21.5 8.5h14q13 0 21.5 -8.5t8.5 -21.5v-513q0 -29 17.5 -47.5t48.5 -18.5h81q30 0 48 19t18 47v513q0 13 8.5 21.5
t21.5 8.5h14q13 0 21.5 -8.5t8.5 -21.5v-619zM330 756q-1 -5 -2 -6l-7 -10q-4 -7 -16 -7q-4 0 -8 2l-132 75q-13 7 -13 23q0 11 5 19l10 14q10 13 26 13q10 0 16 -6l114 -101q7 -6 7 -16z" />
    <glyph glyph-name="Uacute" unicode="&#xda;" horiz-adv-x="513" 
d="M437 27q0 -9 -5.5 -18t-17.5 -9h-14q-15 0 -23 14l-10 18q-5 9 -15 9q-30 -18 -58.5 -31t-64.5 -13h-18q-67 0 -103 35q-32 31 -32 79v535q0 13 8.5 21.5t21.5 8.5h14q13 0 21.5 -8.5t8.5 -21.5v-513q0 -29 17.5 -47.5t48.5 -18.5h81q30 0 48 19t18 47v513q0 13 8.5 21.5
t21.5 8.5h14q13 0 21.5 -8.5t8.5 -21.5v-619zM366 833q0 -16 -13 -23l-132 -75q-4 -2 -12.5 -0.5t-11.5 5.5l-7 10q-1 1 -2 6q0 10 7 16l114 101q8 6 17 6q15 0 25 -13l10 -14q5 -8 5 -19z" />
    <glyph glyph-name="Ucircumflex" unicode="&#xdb;" horiz-adv-x="513" 
d="M437 27q0 -9 -5.5 -18t-17.5 -9h-14q-15 0 -23 14l-10 18q-5 9 -15 9q-30 -18 -58.5 -31t-64.5 -13h-18q-67 0 -103 35q-32 31 -32 79v535q0 13 8.5 21.5t21.5 8.5h14q13 0 21.5 -8.5t8.5 -21.5v-513q0 -29 17.5 -47.5t48.5 -18.5h81q30 0 48 19t18 47v513q0 13 8.5 21.5
t21.5 8.5h14q13 0 21.5 -8.5t8.5 -21.5v-619zM386 754q0 -7 -4 -11l-9 -9q-3 -3 -7 -5h-3q-7 0 -14 5l-92 81l-92 -81q-7 -5 -12 -5q-7 0 -12 5l-9 9q-4 4 -4 11q0 8 5 13l73 84q14 16 16 17q10 8 24 8h25q11 0 21 -8q6 -4 16 -17l73 -84q5 -5 5 -13z" />
    <glyph glyph-name="Udieresis" unicode="&#xdc;" horiz-adv-x="513" 
d="M437 27q0 -9 -5.5 -18t-17.5 -9h-14q-15 0 -23 14l-10 18q-5 9 -15 9q-30 -18 -58.5 -31t-64.5 -13h-18q-67 0 -103 35q-32 31 -32 79v535q0 13 8.5 21.5t21.5 8.5h14q13 0 21.5 -8.5t8.5 -21.5v-513q0 -29 17.5 -47.5t48.5 -18.5h81q30 0 48 19t18 47v513q0 13 8.5 21.5
t21.5 8.5h14q13 0 21.5 -8.5t8.5 -21.5v-619zM363 778q0 -20 -20 -20h-28q-20 0 -20 20v78q0 20 20 20h27q21 0 21 -20v-78zM219 778q0 -20 -20 -20h-27q-21 0 -21 20v78q0 20 20 20h28q20 0 20 -20v-78z" />
    <glyph glyph-name="Yacute" unicode="&#xdd;" horiz-adv-x="418" 
d="M390 642l-3 -12l-141 -289v-311q0 -13 -8.5 -21.5t-21.5 -8.5h-14q-13 0 -21.5 8.5t-8.5 21.5v311l-141 289l-3 12q0 19 18 28l12 6q8 3 14 3q16 0 23 -15l114 -232l114 232q7 15 23 15q6 0 14 -3l12 -6q18 -9 18 -28zM315 833q0 -16 -13 -23l-132 -75q-4 -2 -12.5 -0.5
t-11.5 5.5l-7 10q-1 1 -2 6q0 10 7 16l114 101q8 6 17 6q15 0 25 -13l10 -14q5 -8 5 -19z" />
    <glyph glyph-name="Thorn" unicode="&#xde;" horiz-adv-x="436" 
d="M391 311q0 -46 -34 -81t-82 -35h-125v-167q0 -12 -8 -20t-20 -8h-18q-12 0 -20 8t-8 20v621q0 27 29 27h17q28 0 28 -26v-113q0 -13 10 -13q2 0 56 31q26 15 53 15h11q48 0 79.5 -31.5t31.5 -81.5v-146zM317 319v126q0 22 -15.5 38.5t-39.5 16.5h-57q-22 0 -38.5 -16.5
t-16.5 -38.5v-183h107q26 0 43 18t17 39z" />
    <glyph glyph-name="germandbls" unicode="&#xdf;" horiz-adv-x="442" 
d="M61 570q0 37 28 68q34 38 85 38h92q46 0 75.5 -31.5t29.5 -78.5v-145q0 -63 -61 -79q32 -2 57 -24t25 -57v-154q0 -42 -31.5 -74.5t-82.5 -32.5h-71q-30 0 -30 28v11q0 12 8.5 20t21.5 8h43q32 0 50 18t18 47v108q0 64 -58 64h-44q-30 0 -30 28v11q0 12 8.5 20t21.5 8h19
q27 0 44.5 17.5t17.5 41.5v126q0 23 -15 38t-38 15h-51q-25 0 -41.5 -17.5t-16.5 -38.5v-743q0 -12 -9 -21t-21 -9h-14q-13 0 -21.5 8.5t-8.5 21.5v760z" />
    <glyph glyph-name="agrave" unicode="&#xe0;" horiz-adv-x="421" 
d="M360 25q0 -10 -6.5 -17.5t-16.5 -7.5h-15q-14 0 -22 14l-9 17q-7 10 -16 10q-7 0 -39 -22t-67 -22h-15q-46 0 -78.5 33.5t-32.5 79.5v77q0 50 32 82t79 32h15q28 0 53 -15.5t52 -31.5q12 0 12 17v72q0 64 -66 64h-114q-30 0 -30 28v11q0 12 8.5 20t21.5 8h141
q45 0 79 -32t34 -77v-340zM286 130v38q0 27 -18 45t-45 18h-43q-27 0 -45 -18t-18 -45v-38q0 -27 18 -45t45 -18h43q27 0 45 18t18 45zM307 556q-1 -5 -2 -6l-7 -10q-4 -7 -16 -7q-4 0 -8 2l-132 75q-13 7 -13 23q0 11 5 19l10 14q10 13 26 13q10 0 16 -6l114 -101
q7 -6 7 -16z" />
    <glyph glyph-name="aacute" unicode="&#xe1;" horiz-adv-x="421" 
d="M360 25q0 -10 -6.5 -17.5t-16.5 -7.5h-15q-14 0 -22 14l-9 17q-7 10 -16 10q-7 0 -39 -22t-67 -22h-15q-46 0 -78.5 33.5t-32.5 79.5v77q0 50 32 82t79 32h15q28 0 53 -15.5t52 -31.5q12 0 12 17v72q0 64 -66 64h-114q-30 0 -30 28v11q0 12 8.5 20t21.5 8h141
q45 0 79 -32t34 -77v-340zM286 130v38q0 27 -18 45t-45 18h-43q-27 0 -45 -18t-18 -45v-38q0 -27 18 -45t45 -18h43q27 0 45 18t18 45zM320 633q0 -16 -13 -23l-132 -75q-4 -2 -12.5 -0.5t-11.5 5.5l-7 10q-1 1 -2 6q0 10 7 16l114 101q8 6 17 6q15 0 25 -13l10 -14
q5 -8 5 -19z" />
    <glyph glyph-name="acircumflex" unicode="&#xe2;" horiz-adv-x="421" 
d="M360 25q0 -10 -6.5 -17.5t-16.5 -7.5h-15q-14 0 -22 14l-9 17q-7 10 -16 10q-7 0 -39 -22t-67 -22h-15q-46 0 -78.5 33.5t-32.5 79.5v77q0 50 32 82t79 32h15q28 0 53 -15.5t52 -31.5q12 0 12 17v72q0 64 -66 64h-114q-30 0 -30 28v11q0 12 8.5 20t21.5 8h141
q45 0 79 -32t34 -77v-340zM286 130v38q0 27 -18 45t-45 18h-43q-27 0 -45 -18t-18 -45v-38q0 -27 18 -45t45 -18h43q27 0 45 18t18 45zM347 554q0 -7 -4 -11l-9 -9q-3 -3 -7 -5h-3q-7 0 -14 5l-92 81l-92 -81q-7 -5 -12 -5q-7 0 -12 5l-9 9q-4 4 -4 11q0 8 5 13l73 84
q14 16 16 17q10 8 24 8h25q11 0 21 -8q6 -4 16 -17l73 -84q5 -5 5 -13z" />
    <glyph glyph-name="atilde" unicode="&#xe3;" horiz-adv-x="421" 
d="M360 25q0 -10 -6.5 -17.5t-16.5 -7.5h-15q-14 0 -22 14l-9 17q-7 10 -16 10q-7 0 -39 -22t-67 -22h-15q-46 0 -78.5 33.5t-32.5 79.5v77q0 50 32 82t79 32h15q28 0 53 -15.5t52 -31.5q12 0 12 17v72q0 64 -66 64h-114q-30 0 -30 28v11q0 12 8.5 20t21.5 8h141
q45 0 79 -32t34 -77v-340zM286 130v38q0 27 -18 45t-45 18h-43q-27 0 -45 -18t-18 -45v-38q0 -27 18 -45t45 -18h43q27 0 45 18t18 45zM379 655q0 -11 -9 -20l-55 -57q-8 -8 -21 -12.5t-27 -4.5q-15 0 -27.5 6t-19.5 14l-29 36l-7 4q-9 -3 -12 -5l-65 -50q-7 -5 -13 -5
q-25 0 -25 24q0 11 9 20l56 57q17 17 46 17q31 0 46 -19l29 -36q2 -2 7 -4q1 0 5 -1l10 5l63 50q7 5 14 5q25 0 25 -24z" />
    <glyph glyph-name="adieresis" unicode="&#xe4;" horiz-adv-x="421" 
d="M360 25q0 -10 -6.5 -17.5t-16.5 -7.5h-15q-14 0 -22 14l-9 17q-7 10 -16 10q-7 0 -39 -22t-67 -22h-15q-46 0 -78.5 33.5t-32.5 79.5v77q0 50 32 82t79 32h15q28 0 53 -15.5t52 -31.5q12 0 12 17v72q0 64 -66 64h-114q-30 0 -30 28v11q0 12 8.5 20t21.5 8h141
q45 0 79 -32t34 -77v-340zM286 130v38q0 27 -18 45t-45 18h-43q-27 0 -45 -18t-18 -45v-38q0 -27 18 -45t45 -18h43q27 0 45 18t18 45zM324 578q0 -20 -20 -20h-28q-20 0 -20 20v78q0 20 20 20h27q21 0 21 -20v-78zM180 578q0 -20 -20 -20h-27q-21 0 -21 20v78q0 20 20 20
h28q20 0 20 -20v-78z" />
    <glyph glyph-name="aring" unicode="&#xe5;" horiz-adv-x="421" 
d="M360 25q0 -10 -6.5 -17.5t-16.5 -7.5h-15q-14 0 -22 14l-9 17q-7 10 -16 10q-7 0 -39 -22t-67 -22h-15q-46 0 -78.5 33.5t-32.5 79.5v77q0 50 32 82t79 32h15q28 0 53 -15.5t52 -31.5q12 0 12 17v72q0 64 -66 64h-114q-30 0 -30 28v11q0 12 8.5 20t21.5 8h141
q45 0 79 -32t34 -77v-340zM286 130v38q0 27 -18 45t-45 18h-43q-27 0 -45 -18t-18 -45v-38q0 -27 18 -45t45 -18h43q27 0 45 18t18 45zM305 581q0 -24 -17 -42t-41 -18h-56q-24 0 -41 18t-17 42v35q0 24 16 42t40 18h60q24 0 40 -18t16 -42v-35zM255 589v20q0 17 -17 17h-37
q-18 0 -18 -17v-20q0 -18 17 -18h38q7 0 12 5t5 13z" />
    <glyph glyph-name="ae" unicode="&#xe6;" horiz-adv-x="651" 
d="M603 267q0 -31 -16 -45.5t-42 -14.5h-185v-79q0 -28 16.5 -44.5t48.5 -16.5h103q30 0 30 -28v-11q0 -12 -8.5 -20t-21.5 -8h-136q-39 0 -69 30q-11 11 -26 11q-13 0 -27 -9q-31 -22 -48.5 -28.5t-52.5 -6.5h-15q-45 0 -78 34t-33 80v76q0 48 32 81t79 33h15
q33 0 65 -23.5t41 -23.5q11 0 11 16v73q0 64 -66 64h-114q-30 0 -30 28v11q0 12 8.5 20t21.5 8h141q47 0 76 -32q13 14 35 23t43 9h87q46 0 80.5 -32.5t34.5 -77.5v-97zM529 269v84q0 23 -15.5 38.5t-38.5 15.5h-61q-22 0 -38 -15t-16 -39v-84h169zM286 130v38q0 27 -18 45
t-45 18h-43q-27 0 -45 -18t-18 -45v-38q0 -27 18 -45t45 -18h43q27 0 45 18t18 45z" />
    <glyph glyph-name="ccedilla" unicode="&#xe7;" horiz-adv-x="358" 
d="M167 0q-44 0 -75 34t-31 80v249q0 46 33.5 78.5t80.5 32.5h122q30 0 30 -28v-11q0 -12 -8.5 -20t-21.5 -8h-96q-35 0 -50.5 -17.5t-15.5 -47.5v-213q0 -33 18.5 -47.5t48.5 -14.5h106q30 0 30 -28v-11q0 -12 -8.5 -20t-21.5 -8h-86v-50h7q26 0 44 -16t18 -42v-54
q0 -25 -17.5 -41.5t-43.5 -16.5h-71q-9 0 -16.5 6.5t-7.5 13.5v12q0 8 7 14t16 6h52q26 0 26 25v13q0 14 -6 21t-22 7h-41v102z" />
    <glyph glyph-name="egrave" unicode="&#xe8;" horiz-adv-x="421" 
d="M378 267q0 -31 -16 -45.5t-42 -14.5h-185v-79q0 -28 16.5 -44.5t48.5 -16.5h103q30 0 30 -28v-11q0 -12 -8.5 -20t-21.5 -8h-133q-44 0 -76.5 33.5t-32.5 80.5v250q0 46 34 78t81 32h87q46 0 80.5 -32.5t34.5 -77.5v-97zM304 269v84q0 23 -15.5 38.5t-38.5 15.5h-61
q-22 0 -38 -15t-16 -39v-84h169zM316 556q-1 -5 -2 -6l-7 -10q-4 -7 -16 -7q-4 0 -8 2l-132 75q-13 7 -13 23q0 11 5 19l10 14q10 13 26 13q10 0 16 -6l114 -101q7 -6 7 -16z" />
    <glyph glyph-name="eacute" unicode="&#xe9;" horiz-adv-x="421" 
d="M378 267q0 -31 -16 -45.5t-42 -14.5h-185v-79q0 -28 16.5 -44.5t48.5 -16.5h103q30 0 30 -28v-11q0 -12 -8.5 -20t-21.5 -8h-133q-44 0 -76.5 33.5t-32.5 80.5v250q0 46 34 78t81 32h87q46 0 80.5 -32.5t34.5 -77.5v-97zM304 269v84q0 23 -15.5 38.5t-38.5 15.5h-61
q-22 0 -38 -15t-16 -39v-84h169zM338 633q0 -16 -13 -23l-132 -75q-4 -2 -12.5 -0.5t-11.5 5.5l-7 10q-1 1 -2 6q0 10 7 16l114 101q8 6 17 6q15 0 25 -13l10 -14q5 -8 5 -19z" />
    <glyph glyph-name="ecircumflex" unicode="&#xea;" horiz-adv-x="421" 
d="M378 267q0 -31 -16 -45.5t-42 -14.5h-185v-79q0 -28 16.5 -44.5t48.5 -16.5h103q30 0 30 -28v-11q0 -12 -8.5 -20t-21.5 -8h-133q-44 0 -76.5 33.5t-32.5 80.5v250q0 46 34 78t81 32h87q46 0 80.5 -32.5t34.5 -77.5v-97zM304 269v84q0 23 -15.5 38.5t-38.5 15.5h-61
q-22 0 -38 -15t-16 -39v-84h169zM349 554q0 -7 -4 -11l-9 -9q-3 -3 -7 -5h-3q-7 0 -14 5l-92 81l-92 -81q-7 -5 -12 -5q-7 0 -12 5l-9 9q-4 4 -4 11q0 8 5 13l73 84q14 16 16 17q10 8 24 8h25q11 0 21 -8q6 -4 16 -17l73 -84q5 -5 5 -13z" />
    <glyph glyph-name="edieresis" unicode="&#xeb;" horiz-adv-x="421" 
d="M378 267q0 -31 -16 -45.5t-42 -14.5h-185v-79q0 -28 16.5 -44.5t48.5 -16.5h103q30 0 30 -28v-11q0 -12 -8.5 -20t-21.5 -8h-133q-44 0 -76.5 33.5t-32.5 80.5v250q0 46 34 78t81 32h87q46 0 80.5 -32.5t34.5 -77.5v-97zM304 269v84q0 23 -15.5 38.5t-38.5 15.5h-61
q-22 0 -38 -15t-16 -39v-84h169zM328 578q0 -20 -20 -20h-28q-20 0 -20 20v78q0 20 20 20h27q21 0 21 -20v-78zM184 578q0 -20 -20 -20h-27q-21 0 -21 20v78q0 20 20 20h28q20 0 20 -20v-78z" />
    <glyph glyph-name="igrave" unicode="&#xec;" horiz-adv-x="248" 
d="M161 30q0 -12 -9 -21t-21 -9h-14q-13 0 -21.5 8.5t-8.5 21.5v414q0 13 8.5 21.5t21.5 8.5h14q13 0 21.5 -8.5t8.5 -21.5v-414zM213 556q-1 -5 -2 -6l-7 -10q-4 -7 -16 -7q-4 0 -8 2l-132 75q-13 7 -13 23q0 11 5 19l10 14q10 13 26 13q10 0 16 -6l114 -101q7 -6 7 -16z
" />
    <glyph glyph-name="iacute" unicode="&#xed;" horiz-adv-x="248" 
d="M213 633q0 -16 -13 -23l-132 -75q-4 -2 -12.5 -0.5t-11.5 5.5l-7 10q-1 1 -2 6q0 10 7 16l114 101q8 6 17 6q15 0 25 -13l10 -14q5 -8 5 -19zM161 30q0 -12 -9 -21t-21 -9h-14q-13 0 -21.5 8.5t-8.5 21.5v414q0 13 8.5 21.5t21.5 8.5h14q13 0 21.5 -8.5t8.5 -21.5v-414z
" />
    <glyph glyph-name="icircumflex" unicode="&#xee;" horiz-adv-x="248" 
d="M253 554q0 -7 -4 -11l-9 -9q-3 -3 -7 -5h-3q-7 0 -14 5l-92 81l-92 -81q-7 -5 -12 -5q-7 0 -12 5l-9 9q-4 4 -4 11q0 8 5 13l73 84q14 16 16 17q10 8 24 8h25q11 0 21 -8q6 -4 16 -17l73 -84q5 -5 5 -13zM161 30q0 -12 -9 -21t-21 -9h-14q-13 0 -21.5 8.5t-8.5 21.5v414
q0 13 8.5 21.5t21.5 8.5h14q13 0 21.5 -8.5t8.5 -21.5v-414z" />
    <glyph glyph-name="idieresis" unicode="&#xef;" horiz-adv-x="248" 
d="M230 578q0 -20 -20 -20h-28q-20 0 -20 20v78q0 20 20 20h27q21 0 21 -20v-78zM86 578q0 -20 -20 -20h-27q-21 0 -21 20v78q0 20 20 20h28q20 0 20 -20v-78zM161 30q0 -12 -9 -21t-21 -9h-14q-13 0 -21.5 8.5t-8.5 21.5v414q0 13 8.5 21.5t21.5 8.5h14q13 0 21.5 -8.5
t8.5 -21.5v-414z" />
    <glyph glyph-name="eth" unicode="&#xf0;" horiz-adv-x="438" 
d="M423 659q4 -4 4 -15q0 -15 -12 -22l-44 -30l4 -22v-545q0 -10 -6.5 -17.5t-16.5 -7.5h-15q-14 0 -22 14l-9 17q-7 10 -16 10q-7 0 -39 -22t-67 -22h-15q-46 0 -78.5 33.5t-32.5 79.5v253q0 50 32 82t79 32h15q28 0 53 -15.5t52 -31.5q12 0 12 17v96l-40 -27q-8 -5 -16 -5
q-12 0 -19 10l-7 10q-4 5 -4 14q0 14 10 21l50 35q-14 8 -35 8h-92q-12 0 -21 8t-9 20v10q0 10 8.5 19.5t22.5 9.5h118q22 0 39.5 -8t32.5 -22l40 27q8 6 17 6q12 0 19 -10zM301 130v214q0 27 -18 45t-45 18h-43q-27 0 -45 -18t-18 -45v-214q0 -27 18 -45t45 -18h43
q27 0 45 18t18 45z" />
    <glyph glyph-name="ntilde" unicode="&#xf1;" 
d="M378 30q0 -12 -9 -21t-21 -9h-14q-13 0 -21.5 8.5t-8.5 21.5v313q0 28 -19 46t-44 18h-43q-25 0 -44 -17t-19 -47v-313q0 -12 -9 -21t-21 -9h-14q-13 0 -21.5 8.5t-8.5 21.5v419q0 25 27 25h13q11 0 19 -14l9 -18q5 -12 18 -12q2 0 53 31q26 16 52 16h15q48 0 79.5 -33.5
t31.5 -78.5v-335zM375 655q0 -11 -9 -20l-55 -57q-8 -8 -21 -12.5t-27 -4.5q-15 0 -27.5 6t-19.5 14l-29 36l-7 4q-9 -3 -12 -5l-65 -50q-7 -5 -13 -5q-25 0 -25 24q0 11 9 20l56 57q17 17 46 17q31 0 46 -19l29 -36q2 -2 7 -4q1 0 5 -1l10 5l63 50q7 5 14 5q25 0 25 -24z
" />
    <glyph glyph-name="ograve" unicode="&#xf2;" 
d="M378 112q0 -46 -32 -79t-79 -33h-95q-47 0 -79 33t-32 79v252q0 46 34 78t81 32h87q47 0 81 -32t34 -78v-252zM304 122v230q0 23 -15 39t-39 16h-60q-23 0 -39 -16t-16 -39v-230q0 -23 15 -39t39 -16h60q23 0 39 16t16 39zM299 556q-1 -5 -2 -6l-7 -10q-4 -7 -16 -7
q-4 0 -8 2l-132 75q-13 7 -13 23q0 11 5 19l10 14q10 13 26 13q10 0 16 -6l114 -101q7 -6 7 -16z" />
    <glyph glyph-name="oacute" unicode="&#xf3;" 
d="M378 112q0 -46 -32 -79t-79 -33h-95q-47 0 -79 33t-32 79v252q0 46 34 78t81 32h87q47 0 81 -32t34 -78v-252zM304 122v230q0 23 -15 39t-39 16h-60q-23 0 -39 -16t-16 -39v-230q0 -23 15 -39t39 -16h60q23 0 39 16t16 39zM312 633q0 -16 -13 -23l-132 -75
q-4 -2 -12.5 -0.5t-11.5 5.5l-7 10q-1 1 -2 6q0 10 7 16l114 101q8 6 17 6q15 0 25 -13l10 -14q5 -8 5 -19z" />
    <glyph glyph-name="ocircumflex" unicode="&#xf4;" 
d="M378 112q0 -46 -32 -79t-79 -33h-95q-47 0 -79 33t-32 79v252q0 46 34 78t81 32h87q47 0 81 -32t34 -78v-252zM304 122v230q0 23 -15 39t-39 16h-60q-23 0 -39 -16t-16 -39v-230q0 -23 15 -39t39 -16h60q23 0 39 16t16 39zM348 554q0 -7 -4 -11l-9 -9q-3 -3 -7 -5h-3
q-7 0 -14 5l-92 81l-92 -81q-7 -5 -12 -5q-7 0 -12 5l-9 9q-4 4 -4 11q0 8 5 13l73 84q14 16 16 17q10 8 24 8h25q11 0 21 -8q6 -4 16 -17l73 -84q5 -5 5 -13z" />
    <glyph glyph-name="otilde" unicode="&#xf5;" 
d="M378 112q0 -46 -32 -79t-79 -33h-95q-47 0 -79 33t-32 79v252q0 46 34 78t81 32h87q47 0 81 -32t34 -78v-252zM304 122v230q0 23 -15 39t-39 16h-60q-23 0 -39 -16t-16 -39v-230q0 -23 15 -39t39 -16h60q23 0 39 16t16 39zM375 655q0 -11 -9 -20l-55 -57q-8 -8 -21 -12.5
t-27 -4.5q-15 0 -27.5 6t-19.5 14l-29 36l-7 4q-9 -3 -12 -5l-65 -50q-7 -5 -13 -5q-25 0 -25 24q0 11 9 20l56 57q17 17 46 17q31 0 46 -19l29 -36q2 -2 7 -4q1 0 5 -1l10 5l63 50q7 5 14 5q25 0 25 -24z" />
    <glyph glyph-name="odieresis" unicode="&#xf6;" 
d="M378 112q0 -46 -32 -79t-79 -33h-95q-47 0 -79 33t-32 79v252q0 46 34 78t81 32h87q47 0 81 -32t34 -78v-252zM304 122v230q0 23 -15 39t-39 16h-60q-23 0 -39 -16t-16 -39v-230q0 -23 15 -39t39 -16h60q23 0 39 16t16 39zM325 578q0 -20 -20 -20h-28q-20 0 -20 20v78
q0 20 20 20h27q21 0 21 -20v-78zM181 578q0 -20 -20 -20h-27q-21 0 -21 20v78q0 20 20 20h28q20 0 20 -20v-78z" />
    <glyph glyph-name="divide" unicode="&#xf7;" horiz-adv-x="500" 
d="M288 392q0 -12 -8 -20t-20 -8h-20q-12 0 -20 8t-8 20v59q0 12 8 20t20 8h20q12 0 20 -8t8 -20v-59zM455 269q0 -12 -9 -20t-21 -8h-350q-30 0 -30 28v11q0 12 8.5 20t21.5 8h350q13 0 21.5 -7.5t8.5 -20.5v-11zM288 98q0 -12 -8 -20t-20 -8h-20q-12 0 -20 8t-8 20v59
q0 12 8 20t20 8h20q12 0 20 -8t8 -20v-59z" />
    <glyph glyph-name="oslash" unicode="&#xf8;" 
d="M378 112q0 -46 -32 -79t-79 -33h-95l-27 3l-27 -60q-4 -10 -12.5 -11.5t-14.5 0.5l-12 5q-12 5 -12 19q0 2 2 8l29 65q-37 34 -37 83v252q0 46 34 78t81 32h87h11l18 -4l22 50q5 12 19 12q4 0 8 -2l12 -6q17 -8 10 -26l-23 -53q38 -33 38 -81v-252zM264 405l-14 2h-60
q-23 0 -39 -16t-16 -39v-230v-7zM304 122v230l-1 10l-129 -293l15 -2h60q23 0 39 16t16 39z" />
    <glyph glyph-name="ugrave" unicode="&#xf9;" 
d="M378 25q0 -10 -6.5 -17.5t-16.5 -7.5h-15q-14 0 -22 14l-9 17q-7 10 -16 10q-7 0 -39 -22t-67 -22h-15q-46 0 -78.5 33.5t-32.5 79.5v334q0 13 8.5 21.5t21.5 8.5h14q13 0 21.5 -8.5t8.5 -21.5v-314q0 -27 18 -45t45 -18h43q27 0 45 18t18 45v314q0 13 8.5 21.5t21.5 8.5
h14q13 0 21.5 -8.5t8.5 -21.5v-419zM306 556q-1 -5 -2 -6l-7 -10q-4 -7 -16 -7q-4 0 -8 2l-132 75q-13 7 -13 23q0 11 5 19l10 14q10 13 26 13q10 0 16 -6l114 -101q7 -6 7 -16z" />
    <glyph glyph-name="uacute" unicode="&#xfa;" 
d="M378 25q0 -10 -6.5 -17.5t-16.5 -7.5h-15q-14 0 -22 14l-9 17q-7 10 -16 10q-7 0 -39 -22t-67 -22h-15q-46 0 -78.5 33.5t-32.5 79.5v334q0 13 8.5 21.5t21.5 8.5h14q13 0 21.5 -8.5t8.5 -21.5v-314q0 -27 18 -45t45 -18h43q27 0 45 18t18 45v314q0 13 8.5 21.5t21.5 8.5
h14q13 0 21.5 -8.5t8.5 -21.5v-419zM326 633q0 -16 -13 -23l-132 -75q-4 -2 -12.5 -0.5t-11.5 5.5l-7 10q-1 1 -2 6q0 10 7 16l114 101q8 6 17 6q15 0 25 -13l10 -14q5 -8 5 -19z" />
    <glyph glyph-name="ucircumflex" unicode="&#xfb;" 
d="M378 25q0 -10 -6.5 -17.5t-16.5 -7.5h-15q-14 0 -22 14l-9 17q-7 10 -16 10q-7 0 -39 -22t-67 -22h-15q-46 0 -78.5 33.5t-32.5 79.5v334q0 13 8.5 21.5t21.5 8.5h14q13 0 21.5 -8.5t8.5 -21.5v-314q0 -27 18 -45t45 -18h43q27 0 45 18t18 45v314q0 13 8.5 21.5t21.5 8.5
h14q13 0 21.5 -8.5t8.5 -21.5v-419zM349 554q0 -7 -4 -11l-9 -9q-3 -3 -7 -5h-3q-7 0 -14 5l-92 81l-92 -81q-7 -5 -12 -5q-7 0 -12 5l-9 9q-4 4 -4 11q0 8 5 13l73 84q14 16 16 17q10 8 24 8h25q11 0 21 -8q6 -4 16 -17l73 -84q5 -5 5 -13z" />
    <glyph glyph-name="udieresis" unicode="&#xfc;" 
d="M378 25q0 -10 -6.5 -17.5t-16.5 -7.5h-15q-14 0 -22 14l-9 17q-7 10 -16 10q-7 0 -39 -22t-67 -22h-15q-46 0 -78.5 33.5t-32.5 79.5v334q0 13 8.5 21.5t21.5 8.5h14q13 0 21.5 -8.5t8.5 -21.5v-314q0 -27 18 -45t45 -18h43q27 0 45 18t18 45v314q0 13 8.5 21.5t21.5 8.5
h14q13 0 21.5 -8.5t8.5 -21.5v-419zM325 578q0 -20 -20 -20h-28q-20 0 -20 20v78q0 20 20 20h27q21 0 21 -20v-78zM181 578q0 -20 -20 -20h-27q-21 0 -21 20v78q0 20 20 20h28q20 0 20 -20v-78z" />
    <glyph glyph-name="yacute" unicode="&#xfd;" horiz-adv-x="448" 
d="M422 442l-2 -10l-231 -632q-7 -20 -24 -20q-7 0 -17 5l-11 6q-13 8 -13 20q0 9 2 14l64 175q-8 0 -13 18l-151 414l-2 10q0 18 19 26l16 6q8 2 12 2q19 0 25 -19l128 -360l128 360q8 20 27 20q3 0 9 -2l15 -7q19 -9 19 -26zM338 633q0 -16 -13 -23l-132 -75
q-4 -2 -12.5 -0.5t-11.5 5.5l-7 10q-1 1 -2 6q0 10 7 16l114 101q8 6 17 6q15 0 25 -13l10 -14q5 -8 5 -19z" />
    <glyph glyph-name="thorn" unicode="&#xfe;" horiz-adv-x="436" 
d="M378 109q0 -46 -32 -79t-79 -33h-15q-35 0 -67 22t-38 22q-12 0 -12 -18v-214q0 -12 -8.5 -20.5t-21.5 -8.5h-16q-13 0 -20.5 8.5t-7.5 20.5v840q0 13 8 20t21 7h17q28 0 28 -27v-203q0 -16 12 -16q2 0 53 31q26 16 52 16h15q46 0 78.5 -32.5t32.5 -77.5v-258zM304 130
v214q0 27 -18 45t-45 18h-43q-27 0 -45 -18t-18 -45v-214q0 -27 18 -45t45 -18h43q27 0 45 18t18 45z" />
    <glyph glyph-name="ydieresis" unicode="&#xff;" horiz-adv-x="448" 
d="M422 442l-2 -10l-231 -632q-7 -20 -24 -20q-7 0 -17 5l-11 6q-13 8 -13 20q0 9 2 14l64 175q-8 0 -13 18l-151 414l-2 10q0 18 19 26l16 6q8 2 12 2q19 0 25 -19l128 -360l128 360q8 20 27 20q3 0 9 -2l15 -7q19 -9 19 -26zM330 578q0 -20 -20 -20h-28q-20 0 -20 20v78
q0 20 20 20h27q21 0 21 -20v-78zM186 578q0 -20 -20 -20h-27q-21 0 -21 20v78q0 20 20 20h28q20 0 20 -20v-78z" />
    <glyph glyph-name="dotlessi" unicode="&#x131;" horiz-adv-x="248" 
d="M161 30q0 -12 -9 -21t-21 -9h-14q-13 0 -21.5 8.5t-8.5 21.5v414q0 13 8.5 21.5t21.5 8.5h14q13 0 21.5 -8.5t8.5 -21.5v-414z" />
    <glyph glyph-name="Lslash" unicode="&#x141;" horiz-adv-x="424" 
d="M404 28q0 -12 -9 -20t-21 -8h-274v298l-41 -22q-6 -3 -11 -3q-14 0 -21 14l-7 14q-3 6 -3 12q0 13 13 20l70 36v277q0 13 8.5 21.5t21.5 8.5h14q13 0 21.5 -8.5t8.5 -21.5v-240l108 55q6 3 12 3q13 0 20 -13l7 -14q3 -6 3 -11q0 -14 -14 -21l-136 -70v-268h200
q13 0 21.5 -7.5t8.5 -20.5v-11z" />
    <glyph glyph-name="lslash" unicode="&#x142;" horiz-adv-x="346" 
d="M326 426q0 -14 -13 -21l-135 -70v-307q0 -12 -8 -20t-20 -8h-18q-12 0 -20 8t-8 20v270l-42 -22q-6 -3 -11 -3q-14 0 -21 14l-7 14l-3 10q0 16 13 22l71 36v279q0 12 8 20t20 8h18q12 0 20 -8t8 -20v-241l107 55q6 3 11 3q14 0 21 -14l7 -14q2 -4 2 -11z" />
    <glyph glyph-name="OE" unicode="&#x152;" horiz-adv-x="677" 
d="M647 28q0 -12 -9 -20t-20 -8h-429q-47 0 -80 32t-33 78v456q0 46 33 78t80 32h414q12 0 21 -8t9 -19v-13q0 -11 -9 -19t-21 -8h-186v-238h164q12 0 21 -8t9 -20v-11q0 -12 -9 -20t-21 -8h-164v-237h201q11 0 20 -8t9 -20v-11zM343 67v542h-136q-26 0 -41.5 -18.5
t-15.5 -47.5v-411q0 -29 15 -47t42 -18h136z" />
    <glyph glyph-name="oe" unicode="&#x153;" horiz-adv-x="669" 
d="M621 265q0 -31 -16 -45.5t-42 -14.5h-185v-77q0 -28 16.5 -44.5t48.5 -16.5h103q30 0 30 -28v-11q0 -12 -8.5 -20t-21.5 -8h-133q-21 0 -38 8t-33 23q-16 -14 -35.5 -22.5t-39.5 -8.5h-95q-47 0 -79 33t-32 79v252q0 46 34 78t81 32h87q21 0 40.5 -8.5t37.5 -23.5
q37 32 78 32h87q46 0 80.5 -32.5t34.5 -77.5v-99zM547 269v84q0 23 -15.5 38.5t-38.5 15.5h-61q-22 0 -38 -15t-16 -39v-84h169zM304 122v230q0 23 -15 39t-39 16h-60q-23 0 -39 -16t-16 -39v-230q0 -23 15 -39t39 -16h60q23 0 39 16t16 39z" />
    <glyph glyph-name="Scaron" unicode="&#x160;" horiz-adv-x="433" 
d="M374 114q0 -50 -32 -82t-84 -32h-171q-30 0 -30 28v11q0 12 8.5 20t21.5 8h154q27 0 43 19t16 41v136q0 16 -12.5 28.5t-30.5 12.5h-101q-39 0 -68 25t-29 67v174q0 37 28 68q34 38 85 38h148q13 0 21.5 -7.5t8.5 -20.5v-11q0 -12 -9 -20t-21 -8h-129q-25 0 -41.5 -17.5
t-16.5 -38.5v-142q0 -19 12 -29.5t41 -10.5h112q33 0 54.5 -23.5t21.5 -56.5v-177zM346 854q0 -8 -5 -13l-73 -84q-14 -16 -16 -17q-10 -8 -24 -8h-25q-11 0 -21 8q-5 4 -16 17l-73 84q-5 5 -5 13q0 7 4 11l9 9q3 3 7 5h3q7 0 14 -5l92 -81l92 81q7 5 12 5q7 0 12 -5l9 -9
q4 -4 4 -11z" />
    <glyph glyph-name="scaron" unicode="&#x161;" horiz-adv-x="398" 
d="M350 112q0 -52 -28 -82t-75 -30h-169q-30 0 -30 28v11q0 12 8.5 20t21.5 8h154q23 0 35 20q9 15 9 37v40q0 17 -9 28q-12 15 -35 15h-85q-39 0 -68.5 27t-29.5 71v65q0 36 29 67q34 37 85 37h127q30 0 30 -28v-11q0 -12 -8.5 -20t-21.5 -8h-110q-27 0 -42 -14t-15 -37
v-37q0 -19 14.5 -34.5t40.5 -15.5h82q39 0 64.5 -23.5t25.5 -66.5v-67zM328 654q0 -8 -5 -13l-73 -84q-14 -16 -16 -17q-10 -8 -24 -8h-25q-11 0 -21 8q-5 4 -16 17l-73 84q-5 5 -5 13q0 7 4 11l9 9q3 3 7 5h3q7 0 14 -5l92 -81l92 81q7 5 12 5q7 0 12 -5l9 -9q4 -4 4 -11z
" />
    <glyph glyph-name="Ydieresis" unicode="&#x178;" horiz-adv-x="418" 
d="M390 642l-3 -12l-141 -289v-311q0 -13 -8.5 -21.5t-21.5 -8.5h-14q-13 0 -21.5 8.5t-8.5 21.5v311l-141 289l-3 12q0 19 18 28l12 6q8 3 14 3q16 0 23 -15l114 -232l114 232q7 15 23 15q6 0 14 -3l12 -6q18 -9 18 -28zM315 778q0 -20 -20 -20h-28q-20 0 -20 20v78
q0 20 20 20h27q21 0 21 -20v-78zM171 778q0 -20 -20 -20h-27q-21 0 -21 20v78q0 20 20 20h28q20 0 20 -20v-78z" />
    <glyph glyph-name="Zcaron" unicode="&#x17d;" horiz-adv-x="412" 
d="M381 28q0 -12 -9 -20t-21 -8h-279q-16 0 -24.5 10.5t-8.5 26.5q0 9 2 16q1 4 6 15l228 541h-203q-30 0 -30 28v11q0 12 8.5 20t21.5 8h259q15 0 23.5 -9.5t8.5 -22.5t-8 -32l-229 -545h225q13 0 21.5 -7.5t8.5 -20.5v-11zM344 854q0 -8 -5 -13l-73 -84q-14 -16 -16 -17
q-10 -8 -24 -8h-25q-11 0 -21 8q-5 4 -16 17l-73 84q-5 5 -5 13q0 7 4 11l9 9q3 3 7 5h3q7 0 14 -5l92 -81l92 81q7 5 12 5q7 0 12 -5l9 -9q4 -4 4 -11z" />
    <glyph glyph-name="zcaron" unicode="&#x17e;" horiz-adv-x="394" 
d="M366 28q0 -12 -9 -20t-21 -8h-278q-10 0 -19 8t-9 19v16q0 12 7 23l232 341h-203q-30 0 -30 28v11q0 12 8.5 20t21.5 8h269q11 0 19 -8t8 -19v-9q0 -9 -6 -20.5t-12 -19.5l-225 -331h217q13 0 21.5 -7.5t8.5 -20.5v-11zM334 654q0 -8 -5 -13l-73 -84q-14 -16 -16 -17
q-10 -8 -24 -8h-25q-11 0 -21 8q-5 4 -16 17l-73 84q-5 5 -5 13q0 7 4 11l9 9q3 3 7 5h3q7 0 14 -5l92 -81l92 81q7 5 12 5q7 0 12 -5l9 -9q4 -4 4 -11z" />
    <glyph glyph-name="florin" unicode="&#x192;" horiz-adv-x="375" 
d="M426 648l-2 -10q-3 -13 -11 -21t-24 -8h-102q-25 0 -39.5 -15.5t-18.5 -40.5l-14 -79h99q13 0 20 -7.5t5 -20.5l-2 -11q-5 -28 -35 -28h-99l-91 -515q-9 -47 -42 -79.5t-78 -32.5h-63q-13 0 -20 7.5t-5 20.5l2 11q5 28 35 28h23q34 0 53 17t24 46l88 497h-55
q-13 0 -20 7.5t-5 20.5l2 11q5 28 35 28h55l16 94q8 48 42 78t81 30h121q15 0 21 -8t4 -20z" />
    <glyph glyph-name="hungarumlaut" unicode="&#x2ba;" horiz-adv-x="250" 
d="M241 656l-20 -78q-5 -20 -26 -20h-28q-19 0 -14 20l20 78q5 20 26 20h27q20 0 15 -20zM97 656l-20 -78q-5 -20 -26 -20h-27q-20 0 -15 20l20 78q5 20 26 20h28q19 0 14 -20z" />
    <glyph glyph-name="circumflex" unicode="&#x2c6;" horiz-adv-x="250" 
d="M254 554q0 -7 -4 -11l-9 -9q-3 -3 -7 -5h-3q-7 0 -14 5l-92 81l-92 -81q-7 -5 -12 -5q-7 0 -12 5l-9 9q-4 4 -4 11q0 8 5 13l73 84q14 16 16 17q10 8 24 8h25q11 0 21 -8q6 -4 16 -17l73 -84q5 -5 5 -13z" />
    <glyph glyph-name="caron" unicode="&#x2c7;" horiz-adv-x="250" 
d="M254 654q0 -8 -5 -13l-73 -84q-14 -16 -16 -17q-10 -8 -24 -8h-25q-11 0 -21 8q-5 4 -16 17l-73 84q-5 5 -5 13q0 7 4 11l9 9q3 3 7 5h3q7 0 14 -5l92 -81l92 81q7 5 12 5q7 0 12 -5l9 -9q4 -4 4 -11z" />
    <glyph glyph-name="breve" unicode="&#x2d8;" horiz-adv-x="250" 
d="M219 597q0 -29 -18.5 -46.5t-47.5 -17.5h-54q-29 0 -48.5 18.5t-19.5 46.5v61q0 8 7 12.5t13 4.5h15q5 0 12.5 -4.5t7.5 -12.5v-56q0 -19 18 -19h42q9 0 13.5 5.5t4.5 13.5v56q0 7 6 12t15 5h14q9 0 16 -7q4 -4 4 -10v-62z" />
    <glyph glyph-name="dotaccent" unicode="&#x2d9;" horiz-adv-x="250" 
d="M171 574q0 -9 -10.5 -17t-22.5 -8h-28q-13 0 -22 7t-9 20v71q0 11 9 20t21 9h32q12 0 21 -8t9 -21v-73z" />
    <glyph glyph-name="ring" unicode="&#x2da;" horiz-adv-x="250" 
d="M211 581q0 -24 -17 -42t-41 -18h-56q-24 0 -41 18t-17 42v35q0 24 16 42t40 18h60q24 0 40 -18t16 -42v-35zM161 589v20q0 17 -17 17h-37q-18 0 -18 -17v-20q0 -18 17 -18h38q7 0 12 5t5 13z" />
    <glyph glyph-name="ogonek" unicode="&#x2db;" horiz-adv-x="250" 
d="M200 -201q0 -8 -6.5 -13.5t-16.5 -5.5h-66q-27 0 -44 16t-17 42v56q0 15 3.5 26.5t13.5 23.5l52 60h69l-63 -74q-10 -12 -15 -22.5t-5 -26.5v-23q0 -26 27 -26h46q8 0 15 -7t7 -13v-13z" />
    <glyph glyph-name="tilde" unicode="&#x2dc;" horiz-adv-x="250" 
d="M280 655q0 -11 -9 -20l-55 -57q-8 -8 -21 -12.5t-27 -4.5q-15 0 -27.5 6t-19.5 14l-29 36l-7 4q-9 -3 -12 -5l-65 -50q-7 -5 -13 -5q-25 0 -25 24q0 11 9 20l56 57q17 17 46 17q31 0 46 -19l29 -36q2 -2 7 -4q1 0 5 -1l10 5l63 50q7 5 14 5q25 0 25 -24z" />
    <glyph glyph-name="endash" unicode="&#x2013;" horiz-adv-x="485" 
d="M451 267q0 -11 -7 -18t-18 -7h-366q-10 0 -18 7t-8 18v14q0 11 7 18t19 7h366q11 0 18 -7t7 -18v-14z" />
    <glyph glyph-name="emdash" unicode="&#x2014;" horiz-adv-x="770" 
d="M736 267q0 -11 -7 -18t-18 -7h-651q-10 0 -18 7t-8 18v14q0 11 7 18t19 7h651q11 0 18 -7t7 -18v-14z" />
    <glyph glyph-name="quoteleft" unicode="&#x2018;" horiz-adv-x="198" 
d="M145 484q0 -14 -8.5 -21.5t-21.5 -7.5h-32q-12 0 -21 7.5t-9 20.5v77q0 32 17 63l28 49q6 11 16 6l9 -4q12 -6 7 -17l-17 -37l-5 -20q0 -12 8 -15q16 -7 19 -10q10 -9 10 -23v-68z" />
    <glyph glyph-name="quoteright" unicode="&#x2019;" horiz-adv-x="198" 
d="M145 571q0 -34 -16 -63l-28 -49q-6 -11 -16 -6l-9 4q-12 6 -7 17l17 37l5 20q0 12 -8 15q-18 8 -20 10q-10 8 -10 23v68q0 14 9 21.5t22 7.5h32q12 0 20.5 -7.5t8.5 -20.5v-77z" />
    <glyph glyph-name="quotesinglbase" unicode="&#x201a;" horiz-adv-x="198" 
d="M145 22q0 -34 -16 -63l-28 -49q-6 -11 -16 -6l-9 4q-12 6 -7 17l17 37l5 20q0 12 -8 15q-18 8 -20 10q-10 8 -10 23v68q0 14 9 21.5t22 7.5h32q12 0 20.5 -7.5t8.5 -20.5v-77z" />
    <glyph glyph-name="quotedblleft" unicode="&#x201c;" horiz-adv-x="378" 
d="M145 484q0 -14 -8.5 -21.5t-21.5 -7.5h-32q-12 0 -21 7.5t-9 20.5v77q0 32 17 63l28 49q6 11 16 6l9 -4q12 -6 7 -17l-17 -37l-5 -20q0 -12 8 -15q16 -7 19 -10q10 -9 10 -23v-68zM325 484q0 -14 -8.5 -21.5t-21.5 -7.5h-32q-12 0 -21 7.5t-9 20.5v77q0 32 17 63l28 49
q6 11 16 6l9 -4q12 -6 7 -17l-17 -37l-5 -20q0 -12 8 -15q16 -7 19 -10q10 -9 10 -23v-68z" />
    <glyph glyph-name="quotedblright" unicode="&#x201d;" horiz-adv-x="378" 
d="M145 571q0 -34 -16 -63l-28 -49q-6 -11 -16 -6l-9 4q-12 6 -7 17l17 37l5 20q0 12 -8 15q-18 8 -20 10q-10 8 -10 23v68q0 14 9 21.5t22 7.5h32q12 0 20.5 -7.5t8.5 -20.5v-77zM325 571q0 -34 -16 -63l-28 -49q-6 -11 -16 -6l-9 4q-12 6 -7 17l17 37l5 20q0 12 -8 15
q-18 8 -20 10q-10 8 -10 23v68q0 14 9 21.5t22 7.5h32q12 0 20.5 -7.5t8.5 -20.5v-77z" />
    <glyph glyph-name="quotedblbase" unicode="&#x201e;" horiz-adv-x="378" 
d="M325 22q0 -34 -16 -63l-28 -49q-6 -11 -16 -6l-9 4q-12 6 -7 17l17 37l5 20q0 12 -8 15q-18 8 -20 10q-10 8 -10 23v68q0 14 9 21.5t22 7.5h32q12 0 20.5 -7.5t8.5 -20.5v-77zM145 22q0 -34 -16 -63l-28 -49q-6 -11 -16 -6l-9 4q-12 6 -7 17l17 37l5 20q0 12 -8 15
q-18 8 -20 10q-10 8 -10 23v68q0 14 9 21.5t22 7.5h32q12 0 20.5 -7.5t8.5 -20.5v-77z" />
    <glyph glyph-name="dagger" unicode="&#x2020;" horiz-adv-x="371" 
d="M346 428q0 -11 -8 -18t-18 -7l-106 10l17 -596q0 -20 -9 -28.5t-26 -8.5h-21q-16 0 -25.5 8.5t-9.5 28.5l17 596l-106 -10q-26 0 -26 25v24q0 10 7.5 17.5t18.5 7.5l106 -10l-17 181q-2 13 6 20.5t23 7.5h33q11 0 18 -4q13 -8 11 -24l-17 -181l106 10q10 0 18 -8t8 -17
v-24z" />
    <glyph glyph-name="daggerdbl" unicode="&#x2021;" horiz-adv-x="391" 
d="M356 23q0 -9 -7.5 -17.5t-15.5 -8.5l-109 10l17 -199q0 -28 -29 -28h-33q-29 0 -29 28l17 199l-109 -10q-9 0 -16 8t-7 18v23q0 26 26 26l106 -11q-5 49 -12.5 100t-7.5 72q0 19 6 63q10 73 14 117l-106 -10q-26 0 -26 25v24q0 10 7.5 17.5t18.5 7.5l106 -10l-17 181
q-2 13 6 20.5t23 7.5h33q11 0 18 -4q13 -8 11 -24l-17 -181l106 10q10 0 18 -8t8 -17v-24q0 -11 -8 -18t-18 -7l-106 10q5 -53 14 -117q6 -42 6 -63q0 -19 -6 -61q-10 -70 -14 -111l106 11q13 0 21 -11q5 -7 5 -15v-23z" />
    <glyph glyph-name="bullet" unicode="&#x2022;" horiz-adv-x="387" 
d="M326 251q0 -45 -31.5 -77.5t-77.5 -32.5h-47q-45 0 -77 32t-32 78v46q0 45 32 77t77 32h47q46 0 77.5 -31.5t31.5 -77.5v-46z" />
    <glyph glyph-name="ellipsis" unicode="&#x2026;" horiz-adv-x="722" 
d="M161 25q0 -9 -10.5 -17t-22.5 -8h-28q-13 0 -22 7t-9 20v71q0 11 9 20t21 9h32q12 0 21 -8t9 -21v-73zM407 25q0 -9 -10.5 -17t-22.5 -8h-28q-13 0 -22 7t-9 20v71q0 11 9 20t21 9h32q12 0 21 -8t9 -21v-73zM653 25q0 -9 -10.5 -17t-22.5 -8h-28q-13 0 -22 7t-9 20v71
q0 11 9 20t21 9h32q12 0 21 -8t9 -21v-73z" />
    <glyph glyph-name="perthousand" unicode="&#x2030;" horiz-adv-x="995" 
d="M948 80q0 -33 -23.5 -56.5t-56.5 -23.5h-58q-33 0 -57 23t-24 57v211q0 32 24 56t57 24h58q33 0 56.5 -23.5t23.5 -56.5v-211zM888 81v210q0 25 -24 25h-50q-10 0 -18 -7t-8 -18v-210q0 -11 7.5 -18.5t18.5 -7.5h50q10 0 17 7.5t7 18.5zM653 80q0 -33 -23.5 -56.5
t-56.5 -23.5h-58q-33 0 -56.5 23.5t-23.5 56.5v211q0 33 23.5 56.5t56.5 23.5h58q33 0 56.5 -23.5t23.5 -56.5v-211zM562 651l-378 -650q-10 -16 -24 -7l-14 8q-16 10 -7 25l378 650q7 10 15 10q4 0 9 -3l14 -8q10 -7 10 -15q0 -5 -3 -10zM265 385q0 -32 -23 -56t-56 -24
h-58q-34 0 -57.5 23.5t-23.5 56.5v211q0 33 23.5 56.5t56.5 23.5h58q34 0 57 -23t23 -57v-211zM594 81v210q0 11 -7 18t-18 7h-50q-11 0 -18 -7t-7 -18v-210q0 -10 7 -18t18 -8h50q11 0 18 7t7 19zM206 386v210q0 11 -7 18t-18 7h-50q-11 0 -18 -7t-7 -18v-210q0 -10 7 -18
t18 -8h50q11 0 18 7t7 19z" />
    <glyph glyph-name="guilsinglleft" unicode="&#x2039;" horiz-adv-x="330" 
d="M290 90q0 -6 -4 -12q-2 -3 -8 -8l-7 -5q-8 -6 -18 -6t-18 8l-169 171q-14 14 -14 24v21q0 10 14 24l169 171q8 8 19 8q9 0 17 -6l7 -5q6 -5 9 -10t3 -10q0 -11 -7 -18l-145 -164l145 -165q7 -9 7 -18z" />
    <glyph glyph-name="guilsinglright" unicode="&#x203a;" horiz-adv-x="330" 
d="M278 262q0 -10 -14 -24l-169 -171q-8 -8 -19 -8q-9 0 -17 6l-7 5q-6 5 -9 10t-3 10q0 9 7 18l145 165l-145 164q-7 7 -7 18q0 6 4 12q2 3 8 8l7 5q8 6 18 6t18 -8l169 -171q14 -14 14 -24v-21z" />
    <glyph glyph-name="trademark" unicode="&#x2122;" horiz-adv-x="644" 
d="M569 325q0 -20 -21 -20h-13q-20 0 -20 20v227l-62 -111q-6 -11 -13 -11h-7q-7 0 -13 11l-63 111v-227q0 -20 -20 -20h-13q-21 0 -21 20v330q0 21 21 21h14q14 0 20 -11l78 -144l78 144q6 11 20 11h14q21 0 21 -21v-330zM261 645q0 -19 -21 -19h-81v-300q0 -8 -6 -14.5
t-14 -6.5h-13q-21 0 -21 21v300h-80q-20 0 -20 20v10q0 20 20 20h215q21 0 21 -22v-9z" />
    <glyph glyph-name="fraction" unicode="&#x2215;" horiz-adv-x="320" 
d="M371 651l-377 -650q-10 -16 -24 -7l-14 8q-16 10 -7 25l377 650q7 10 15 10q4 0 9 -3l14 -8q10 -7 10 -15q0 -5 -3 -10z" />
    <glyph glyph-name="fi" unicode="&#xf001;" horiz-adv-x="500" 
d="M423 30q0 -12 -9 -21t-21 -9h-14q-13 0 -21.5 8.5t-8.5 21.5v377h-204v-377q0 -12 -9 -21t-21 -9h-14q-13 0 -21.5 8.5t-8.5 21.5v538q0 46 29 77t75 31h189q30 0 30 -28v-11q0 -12 -8.5 -20t-21.5 -8h-169q-25 0 -37.5 -15.5t-12.5 -40.5v-79h251q27 0 27 -28v-416z" />
    <glyph glyph-name="fl" unicode="&#xf002;" horiz-adv-x="500" 
d="M423 30q0 -12 -9 -21t-21 -9h-14q-13 0 -21.5 8.5t-8.5 21.5v579h-154q-25 0 -37.5 -15.5t-12.5 -40.5v-79h96q30 0 30 -28v-11q0 -12 -8.5 -20t-21.5 -8h-96v-377q0 -12 -9 -21t-21 -9h-14q-13 0 -21.5 8.5t-8.5 21.5v538q0 46 29 77t75 31h220q12 0 20 -8t8 -20v-618z
" />
    </font>
</defs>
</svg>
